Важное объявление!
У Нас Все раздачи мультитрекерные, при нуле пиров в релизах, можете смело вставать на закачку!
 
Автор Сообщение

HUNTER

Стаж:
4 года 9 месяцев
Сообщений:
65033

Репутация: 101

[+] [-]
Вне форума [Профиль] [ЛС]

Утомленные солнцем 2: Цитадель
Страна: Россия, Германия, Франция
Студия: Тритэ
Жанр: драма, военный
Год выпуска: 2011
Продолжительность: 02:37:07
Перевод: Не требуется
Cубтитры: нет
Режиссер: Никита Михалков
В ролях: Никита Михалков, Надежда Михалкова, Анна Михалкова, Олег Меньшиков, Сергей Маковецкий, Инна Чурикова, Роман Мадянов, Сергей Степанченко, Александр Фисенко, Дмитрий Дюжев
Описание: Своей искалеченной судьбой заплатил комдив Котов за восстановление доброго имени. Он возвращается в дом, воспоминания о котором давали ему силы все эти страшные годы. Но то, что ждало в этом доме, его потрясло. Все изменилось, его хрупкий мир рухнул. Котову снова придется сражаться. За свое имя, за свою честь, за свою любовь, за свою Цитадель...
Доп. информация:
Мировая премьера: 5 мая 2011
Российская премьера: 5 мая 2011, «Централ Партнершип»
Сэмпл: http://multi-up.com/526544
Тип релиза: BDRip 720p
Контейнер: MKV
Видео: AVC, 1280x544, 24 fps, 4821 kbps
Аудио: Russian: 48 kHz, AC3, 3/2 (L,C,R,l,r) + LFE ch, ~640 kbps avg

MediaInfo

Tsitadel.BDRip.720p.FSB.mkv
General
Complete name : Tsitadel.BDRip.720p.FSB.mkv
Format : Matroska
File size : 6.00 GiB
Duration : 2h 37mn
Overall bit rate : 5 463 Kbps
Movie name : Tsitadel.BDRip.720p.FSB
Encoded date : UTC 2011-07-21 20:41:38
Writing application : mkvmerge v4.8.0 ('I Got The...') May 24 2011 03:12:58
Writing library : libebml v1.2.0 + libmatroska v1.1.0
Video #1
ID : 1
Format : AVC
Format/Info : Advanced Video Codec
Format profile : High@L4.1
Format settings, CABAC : Yes
Format settings, ReFrames : 12 frames
Muxing mode : Container profile=Unknown@4.1
Codec ID : V_MPEG4/ISO/AVC
Duration : 2h 37mn
Bit rate : 4 714 Kbps
Nominal bit rate : 4 821 Kbps
Width : 1 280 pixels
Height : 544 pixels
Display aspect ratio : 2.35:1
Frame rate : 24.000 fps
Resolution : 24 bits
Colorimetry : 4:2:0
Scan type : Progressive
Bits/(Pixel*Frame) : 0.282
Stream size : 5.17 GiB (86%)
Writing library : x264 core 115 r1995 c1e60b9
Encoding settings : cabac=1 / ref=12 / deblock=1:-1:-1 / analyse=0x3:0x133 / me=umh / subme=9 / psy=1 / psy_rd=1.00:0.15 / mixed_ref=1 / me_range=32 / chroma_me=1 / trellis=1 / 8x8dct=1 / cqm=0 / deadzone=21,11 / fast_pskip=0 / chroma_qp_offset=-3 / threads=6 / sliced_threads=0 / nr=0 / decimate=1 / interlaced=0 / bluray_compat=0 / constrained_intra=0 / bframes=6 / b_pyramid=2 / b_adapt=2 / b_bias=0 / direct=1 / weightb=1 / open_gop=0 / weightp=2 / keyint=250 / keyint_min=24 / scenecut=40 / intra_refresh=0 / rc_lookahead=40 / rc=2pass / mbtree=1 / bitrate=4821 / ratetol=1.0 / qcomp=0.60 / qpmin=0 / qpmax=69 / qpstep=4 / cplxblur=20.0 / qblur=0.5 / ip_ratio=1.40 / aq=1:1.00
Language : Russian
Audio #2
ID : 2
Format : AC-3
Format/Info : Audio Coding 3
Codec ID : A_AC3
Duration : 2h 37mn
Bit rate mode : Constant
Bit rate : 640 Kbps
Channel(s) : 6 channels
Channel positions : Front: L C R, Surround: L R, LFE
Sampling rate : 48.0 KHz
Stream size : 719 MiB (12%)
Language : Russian

Скриншоты


_________________
Показать сообщения:    

Текущее время: Сегодня 00:48

Часовой пояс: GMT



Вы не можете начинать темы
Вы не можете отвечать на сообщения
Вы не можете редактировать свои сообщения
Вы не можете удалять свои сообщения
Вы не можете голосовать в опросах
Вы не можете прикреплять файлы к сообщениям
Вы не можете скачивать файлы