Важное объявление!
У Нас Все раздачи мультитрекерные, при нуле пиров в релизах, можете смело вставать на закачку!
 
Автор Сообщение

HUNTER

Стаж:
4 года 10 месяцев
Сообщений:
65522

Репутация: 101

[+] [-]
Вне форума [Профиль] [ЛС]

УтешениеSolace-
Год выпуска: 2015
Страна: США
Жанр: триллер, детектив
Продолжительность: 01:41:12-Перевод: Любительский (двухголосый) [Parovoz Production]
Субтитры: Нет
Режиссер: Афонсо Пойарт / Afonso Poyart
В ролях: Джеффри Дин Морган (Agent Joe Merriweather), Колин Фаррелл (Charles Ambrose), Энтони Хопкинс (John Clancy), Эбби Корниш (Agent Katherine Cowles), Марли Шелтон (Laura Merriwether), Джанин Тернер (Elizabeth Clancy), Ксандер Беркли (Mr. Ellis), Кенни Джонсон (David Raymond), Хосе Пабло Кантильо (Sawyer), Джошуа Клоуз (Linus Harp), Шэрон Лоуренс (Mrs. Ellis), Мэтт Джералд (Sloman)-Описание: Напарники, Джо и Кэтрин, детективы из ФБР расследуют череду загадочных убийств. Все преступления объединяет нечто сверхъестественное - серийный убийца всегда на шаг впереди лучших сыщиков. Тогда на помощь правосудию приходит отставной аналитик спецслужб доктор Джон Кленси. Его исключительная интуиция и интеллект могут помочь поймать убийцу, но вскоре Джон понимает - его соперник значительно превосходит его в способностях.--Качество: BDRip-AVC
Контейнер: MKV
Видео кодек: AVC
Аудио кодек: AC3
Видео: AVC, 1040x448 (2.40:1), 2100 kbps, 23,976 fps, 0,188 bpp
Аудио: Русский / AC3 / 2.0 / 48 kHz / 192 kbps / 16 bit - -

Скриншоты


Media Info

General
Unique ID : 253527450104487755911366159056215742355 (0xBEBB9C5C9AD55795BDF7468F02C41793)
Complete name : D:\Утешение.2015.BDRip-AVC.mkv
Format : Matroska
Format version : Version 4 / Version 2
File size : 1.62 GiB
Duration : 1h 41mn
Overall bit rate : 2 292 Kbps
Encoded date : UTC 2016-01-14 18:34:49
Writing application : mkvmerge v7.8.0 ('River Man') 32bit built on Mar 27 2015 16:18:02
Writing library : libebml v1.3.1 + libmatroska v1.4.2
DURATION : 01:16:40.000000000
NUMBER_OF_FRAMES : 2
NUMBER_OF_BYTES : 154
_STATISTICS_WRITING_APP : mkvmerge v7.8.0 ('River Man') 32bit built on Mar 27 2015 16:18:02
_STATISTICS_WRITING_DATE_UT : 2016-01-14 18:34:49
_STATISTICS_TAGS : BPS DURATION NUMBER_OF_FRAMES NUMBER_OF_BYTES
Video
ID : 1
Format : AVC
Format/Info : Advanced Video Codec
Format profile : High@L4.1
Format settings, CABAC : Yes
Format settings, ReFrames : 4 frames
Codec ID : V_MPEG4/ISO/AVC
Duration : 1h 41mn
Bit rate : 2 100 Kbps
Width : 1 040 pixels
Height : 448 pixels
Display aspect ratio : 2.40:1
Frame rate mode : Constant
Frame rate : 23.976 fps
Color space : YUV
Chroma subsampling : 4:2:0
Bit depth : 8 bits
Scan type : Progressive
Bits/(Pixel*Frame) : 0.188
Stream size : 1.45 GiB (90%)
Writing library : x264 core 128 r2216M 198a7ea
Encoding settings : cabac=1 / ref=5 / deblock=1:-1:-1 / analyse=0x3:0x133 / me=umh / subme=9 / psy=1 / psy_rd=1.00:0.15 / mixed_ref=1 / me_range=16 / chroma_me=1 / trellis=1 / 8x8dct=1 / cqm=0 / deadzone=21,11 / fast_pskip=1 / chroma_qp_offset=-3 / threads=4 / lookahead_threads=1 / sliced_threads=0 / nr=0 / decimate=1 / interlaced=0 / bluray_compat=0 / constrained_intra=0 / bframes=5 / b_pyramid=1 / b_adapt=2 / b_bias=0 / direct=3 / weightb=1 / open_gop=0 / weightp=2 / keyint=230 / keyint_min=23 / scenecut=40 / intra_refresh=0 / rc_lookahead=40 / rc=2pass / mbtree=1 / bitrate=2100 / ratetol=1.0 / qcomp=0.60 / qpmin=10 / qpmax=51 / qpstep=4 / cplxblur=20.0 / qblur=0.5 / ip_ratio=1.40 / aq=1:1.00
Language : English
Default : Yes
Forced : No
DURATION : 01:41:12.108000000
NUMBER_OF_FRAMES : 145585
NUMBER_OF_BYTES : 1592889382
_STATISTICS_WRITING_APP : mkvmerge v7.8.0 ('River Man') 32bit built on Mar 27 2015 16:18:02
_STATISTICS_WRITING_DATE_UT : 2016-01-14 18:34:49
_STATISTICS_TAGS : BPS DURATION NUMBER_OF_FRAMES NUMBER_OF_BYTES
Audio
ID : 2
Format : AC-3
Format/Info : Audio Coding 3
Mode extension : CM (complete main)
Format settings, Endianness : Big
Codec ID : A_AC3
Duration : 1h 41mn
Bit rate mode : Constant
Bit rate : 192 Kbps
Channel(s) : 2 channels
Channel positions : Front: L R
Sampling rate : 48.0 KHz
Compression mode : Lossy
Stream size : 139 MiB (8%)
Title : Паровоз Продакшн
Language : Russian
Default : Yes
Forced : No
DURATION : 01:41:12.224000000
NUMBER_OF_FRAMES : 189757
NUMBER_OF_BYTES : 145733376
_STATISTICS_WRITING_APP : mkvmerge v7.8.0 ('River Man') 32bit built on Mar 27 2015 16:18:02
_STATISTICS_WRITING_DATE_UT : 2016-01-14 18:34:49
_STATISTICS_TAGS : BPS DURATION NUMBER_OF_FRAMES NUMBER_OF_BYTES
Text
ID : 3
Format : UTF-8
Codec ID : S_TEXT/UTF8
Codec ID/Info : UTF-8 Plain Text
Language : Russian
Default : Yes
Forced : Yes
Menu
00:00:00.000 : en:00:00:00.000
00:09:13.428 : en:00:09:13.428
00:16:38.289 : en:00:16:38.289
00:20:26.475 : en:00:20:26.475
00:30:19.860 : en:00:30:19.860
00:39:57.562 : en:00:39:57.562
00:46:02.468 : en:00:46:02.468
01:00:26.748 : en:01:00:26.748
01:04:05.800 : en:01:04:05.800
01:11:37.126 : en:01:11:37.126
01:18:46.639 : en:01:18:46.639
01:22:42.541 : en:01:22:42.541

_________________
Показать сообщения:    

Текущее время: Сегодня 00:49

Часовой пояс: GMT



Вы не можете начинать темы
Вы не можете отвечать на сообщения
Вы не можете редактировать свои сообщения
Вы не можете удалять свои сообщения
Вы не можете голосовать в опросах
Вы не можете прикреплять файлы к сообщениям
Вы не можете скачивать файлы