Важное объявление!
У Нас Все раздачи мультитрекерные, при нуле пиров в релизах, можете смело вставать на закачку!
 
Автор Сообщение

HUNTER

Стаж:
4 года 10 месяцев
Сообщений:
65511

Репутация: 101

[+] [-]
Вне форума [Профиль] [ЛС]

Установка кухнонных шкафов - дело не сложное / Installing Kitchen Cabinets Made Simple
Страна: USA
Тематика: Дизайн мебели
Тип раздаваемого материала: Видеоурок
Продолжительность: 01:10:40
Год выпуска: 2011
Формат: DVD-Rip
Язык: Английский
Перевод: Отсутствует
Описание: Taunton press представляет очередное видео посвященное установке кухонных шкафов. Грегори Паолини покажет вам все этапы установки современной кухни. Отдельно обсуждаются различия американских и европейских шкафов и фурнитуры, преимущества и недостатки фабричных корпусов и сделанных в мастерской.

MediaInfo

Общее
Формат : MPEG-4
Профиль формата : Base Media / Version 2
Идентификатор кодека : mp42
Размер файла : 657 Мбайт
Продолжительность : 1 ч. 10 м.
Режим общего битрейта : Переменный
Общий поток : 1300 Кбит/сек
Дата кодирования : UTC 2012-01-16 02:07:34
Дата пометки : UTC 2012-01-16 04:07:22
Видео
Идентификатор : 1
Формат : AVC
Формат/Информация : Advanced Video Codec
Профиль формата : Main@L3.0
Параметр CABAC формата : Да
Параметр ReFrames формата : 4 кадра
Идентификатор кодека : avc1
Идентификатор кодека/Информация : Advanced Video Coding
Продолжительность : 1 ч. 10 м.
Вид битрейта : Переменный
Битрейт : 1215 Кбит/сек
Максимальный битрейт : 5634 Кбит/сек
Ширина : 720 пикселей
Высота : 480 пикселей
Соотношение сторон : 16:9
Режим частоты кадров : Постоянный
Частота кадров : 29,970 кадров/сек
Стандарт вещания : NTSC
Цветовое пространство : YUV
Субдискретизация насыщенности : 4:2:0
Битовая глубина : 8 бит
Тип развёртки : Прогрессивная
Бит/(Пиксели*Кадры) : 0.117
Размер потока : 614 Мбайт (93%)
Язык : English
Дата кодирования : UTC 2012-01-16 02:07:35
Дата пометки : UTC 2012-01-16 04:07:22
Аудио
Идентификатор : 2
Формат : AAC
Формат/Информация : Advanced Audio Codec
Профиль формата : LC
Идентификатор кодека : 40
Продолжительность : 1 ч. 10 м.
Вид битрейта : Переменный
Битрейт : 80,0 Кбит/сек
Максимальный битрейт : 89,2 Кбит/сек
Каналы : 2 канала
Расположение каналов : Front: L R
Частота : 48,0 КГц
Метод сжатия : С потерями
Размер потока : 40,4 Мбайт (6%)
Заголовок : Unspecified
Язык : English
Дата кодирования : UTC 2012-01-16 02:07:35
Дата пометки : UTC 2012-01-16 04:07:22
Меню
00:00:00.000 : 1. Introduction
00:00:43.500 : 2. Planning Your Project
00:06:20.500 : 3. Preparing the Site
00:20:37.000 : 4. Preparing Cabinets
00:24:42.000 : 5. Installing Wall Cabinets
00:32:28.500 : 6. Installing Base Cabinets
00:44:49.000 : 7. Installing Trim
00:50:22.500 : 8. Installing Countertops
01:03:21.000 : 9. Installing Hardware

Скриншоты


_________________
Показать сообщения:    

Текущее время: Сегодня 06:39

Часовой пояс: GMT



Вы не можете начинать темы
Вы не можете отвечать на сообщения
Вы не можете редактировать свои сообщения
Вы не можете удалять свои сообщения
Вы не можете голосовать в опросах
Вы не можете прикреплять файлы к сообщениям
Вы не можете скачивать файлы