Важное объявление!
У Нас Все раздачи мультитрекерные, при нуле пиров в релизах, можете смело вставать на закачку!
 
Автор Сообщение

HUNTER

Стаж:
4 года 9 месяцев
Сообщений:
65021

Репутация: 101

[+] [-]
Вне форума [Профиль] [ЛС]

Уроки танцам - Танцы улиц / You Got Served - Street Dance Lessons-

Год выпуска: 2004
Страна: США
Сайт производителя: отсутствуeт
Тематика: Танцы
Тип материала: Обучающее видео-Продолжительность: 01:08:24
Автор: Билли Поллина-Язык: Русский - Профессиональный (полное дублирование)
Субтитры: отсутствуют-Описание: О уроке: Хотите научиться танцевать хип-хоп как в знаменитом фильме Танцы Улиц (You Got Served)?
— Нет проблем! Этот фильм — официальное пособие для начинающих от создателей самого фильма Танцы Улиц!
Супер-звезды хип-хопа Маркес Хьюстон и Омари Грэндберри выходят на танцпол
вместе со знаменитым хореографом Дейвом Скоттом и группой профес-сиональных танцоров,
чтобы подарить нам танец, рожденный на улице!
-Качество: DVDRip
Формат: AVI
Видео кодек: DivX
Аудио кодек: MP3
Видео: MPEG1 Video 352x288 (22000:16479) 25fps 1150kbps [Video]
Аудио: MPEG Audio 44100Hz stereo 224kbps [Audio]-

MediaInfo

Код: copyText_writeLink('this.parentNode.parentNode.nextSibling.nextSibling'); General
Complete name : E:\Обучение\You Got Served - Street Dance Lessons).avi
Format : CDXA/MPEG-PS
File size : 690 MiB
Duration : 1h 8mn
Overall bit rate : 1 411 Kbps
Video
ID : 224 (0xE0)
Format : MPEG Video
Format version : Version 1
Format settings, BVOP : Yes
Format settings, Matrix : Custom
Duration : 1h 8mn
Bit rate : 1 150 Kbps
Width : 352 pixels
Height : 288 pixels
Display aspect ratio : 4:3
Frame rate : 25.000 fps
Standard : PAL
Color space : YUV
Bit depth : 8 bits
Scan type : Progressive
Compression mode : Lossy
Bits/(Pixel*Frame) : 0.454
Stream size : 567 MiB (82%)
Audio
ID : 192 (0xC0)
Format : MPEG Audio
Format version : Version 1
Format profile : Layer 2
Duration : 1h 8mn
Bit rate mode : Constant
Bit rate : 224 Kbps
Channel(s) : 2 channels
Sampling rate : 44.1 KHz
Compression mode : Lossy
Stream size : 110 MiB (16%)
- -

_________________
Показать сообщения:    

Текущее время: Сегодня 19:00

Часовой пояс: GMT



Вы не можете начинать темы
Вы не можете отвечать на сообщения
Вы не можете редактировать свои сообщения
Вы не можете удалять свои сообщения
Вы не можете голосовать в опросах
Вы не можете прикреплять файлы к сообщениям
Вы не можете скачивать файлы