Важное объявление!
У Нас Все раздачи мультитрекерные, при нуле пиров в релизах, можете смело вставать на закачку!
Статистика раздачи
Размер:     |    Зарегистрирован:     |    Скачан:     |   
Нет
 
     
 
 
Автор Сообщение

HUNTER

Стаж:
5 лет
Сообщений:
68004

Репутация: 101

[+] [-]
Вне форума [Профиль] [ЛС]


Уроки жизни с доктором Синельниковым-Год выпуска: 2009
Страна: Россия
Сайт производителя: отсутствуeт
Тематика: психология
Тип материала: Обучающее видео
Продолжительность: 03:09:10
Автор: Доктор Синельников
Язык: Русский
Субтитры: отсутствуют-Описание: Доктор Синельников предлагает вам систему уникальных авторских методик, которые дадут вам Силу, Знание и Любовь для того, чтобы быть счастливым, успешным и благополучным человеком. Жизнь не всегда преподносит нам подарки судьбы, но нужно прислушиваться к себе и окружающему миру и пытаться жить, не учась на ошибках других. -Качество: DVDRip
Формат: AVI
Видео кодек: XviD
Аудио кодек: MP3
Видео: 624x472 (1.32:1), 25 fps, XviD build 50 ~948 kbps avg, 0.13 bit/pixel
Аудио: 44.100 kHz, MPEG Layer 3, 2 ch, ~128.00 kbps avg-

Доп. информация

Валерий Синельников с помощью своих уникальных авторских методик научит вас:
-как построить уникальную модель нового сознания;
-перестать попусту терять силы;
-трансформировать и направить информацию на пользу себе и окружающим, ведь кто владеет информацией, тот владеет миром;
-как раскрыть свой внутренний потенциал.

MediaInfo

Код: copyText_writeLink('this.parentNode.parentNode.nextSibling.nextSibling'); Общее
Полное имя : D:\обуч\uroki_zhizni.avi
Формат : AVI
Формат/Информация : Audio Video Interleave
Размер файла : 1,44 Гбайт
Продолжительность : 3 ч. 9 м.
Общий поток : 1087 Кбит/сек
Программа кодирования : VirtualDubModRus 1.5.10.2 (build 2542/release)
Библиотека кодирования : VirtualDubMod build 2542/release
Видео
Идентификатор : 0
Формат : MPEG-4 Visual
Профиль формата : Advanced Simple@L5
Параметр BVOP формата : 1
Параметр QPel формата : Нет
Параметр GMC формата : Без точки перехода
Параметр матрицы формата : Default (H.263)
Идентификатор кодека : XVID
Идентификатор кодека/Подсказка : XviD
Продолжительность : 3 ч. 9 м.
Битрейт : 949 Кбит/сек
Ширина : 624 пикселя
Высота : 472 пикселя
Соотношение сторон : 4:3
Частота кадров : 25,000 кадров/сек
Цветовое пространство : YUV
Субдискретизация насыщенности : 4:2:0
Битовая глубина : 8 бит
Тип развёртки : Прогрессивная
Метод сжатия : С потерями
Бит/(Пиксели*Кадры) : 0.129
Размер потока : 1,25 Гбайт (87%)
Библиотека кодирования : XviD 1.2.1 (UTC 2008-12-04)
Аудио
Идентификатор : 1
Формат : MPEG Audio
Версия формата : Version 1
Профиль формата : Layer 3
Идентификатор кодека : 55
Идентификатор кодека/Подсказка : MP3
Продолжительность : 3 ч. 9 м.
Вид битрейта : Постоянный
Битрейт : 128 Кбит/сек
Каналы : 2 канала
Частота : 44,1 КГц
Метод сжатия : С потерями
Размер потока : 173 Мбайт (12%)
Выравнивание : Разделение по промежуткам
Продолжительность промежутка : 40 мс. (1,00 видеокадр)
Время предзагрузки промежутка : 500 мс.
Библиотека кодирования : LAME3.98.2

Скриншоты

-

_________________
Показать сообщения:    

Текущее время: Сегодня 06:46

Часовой пояс: GMT



Вы не можете начинать темы
Вы не можете отвечать на сообщения
Вы не можете редактировать свои сообщения
Вы не можете удалять свои сообщения
Вы не можете голосовать в опросах
Вы не можете прикреплять файлы к сообщениям
Вы не можете скачивать файлы