Важное объявление!
У Нас Все раздачи мультитрекерные, при нуле пиров в релизах, можете смело вставать на закачку!
Статистика раздачи
Размер:     |    Зарегистрирован:     |    Скачан:     |   
Нет
 
     
 
 
Автор Сообщение

HUNTER

Стаж:
5 лет
Сообщений:
68414

Репутация: 101

[+] [-]
Вне форума [Профиль] [ЛС]

Урод в замке / Castle Freak
Страна: США
Студия: Full Moon Entertainment
Жанр: Ужасы
Год выпуска: 1995
Продолжительность: 01:34:44
Перевод: Субтитры
Cубтитры: русские, испанские
Оригинальная аудиодорожка: английский
Режиссер: Стюарт Гордон / Stuart Gordon
В ролях: Джеффри Комбс, Барбара Крэмптон, Джонатан Фуллер, Массимо Саркьелли, Элизабет Каза, Лука Зингаретти
Описание: Обычная американская семья узнает, что она унаследовала замок 12 века в Италии. Как только она приезжают в него, начинают происходить странные вещи. Необычные звуки доносятся из подземелья. Слепая дочь начинает рассказывать, что ночью к ней кто-то приходил. Когда находят два зверски изуродованных трупа, семье приходится покинуть замок. Успеют ли они это сделать?

Сэмпл: http://multi-up.com/975186
Тип релиза: BDRip 1080p
Контейнер: MKV
Видео: MPEG4 Video (H264), 1920x1040, 23.976 fps ~ 8 394 Kbps
Аудио: 48 kHz, DTS, 6 ch (Front: L C R, Side) ch, ~1510.00 kbps avg (Английский)
Формат субтитров: softsub (SRT)
Релиз группа: Автор:
MediaInfo
General
Format : Matroska
Format version : Version 4 / Version 2
File size : 6.55 GiB
Duration : 1h 34mn
Overall bit rate : 9 901 Kbps
Encoded date : UTC 2014-05-20 05:00:23
Writing application : mkvmerge v6.5.0 ('Isn't she lovely') built on Oct 20 2013 12:50:05
Writing library : libebml v1.3.0 + libmatroska v1.4.1
Video
ID : 1
Format : AVC
Format/Info : Advanced Video Codec
Format profile : High@L4.1
Format settings, CABAC : Yes
Format settings, ReFrames : 4 frames
Codec ID : V_MPEG4/ISO/AVC
Duration : 1h 34mn
Bit rate : 8 394 Kbps
Width : 1 920 pixels
Height : 1 040 pixels
Display aspect ratio : 1.85:1
Frame rate mode : Constant
Frame rate : 23.976 fps
Color space : YUV
Chroma subsampling : 4:2:0
Bit depth : 8 bits
Scan type : Progressive
Bits/(Pixel*Frame) : 0.175
Stream size : 5.42 GiB (83%)
Writing library : x264 core 135 r2345 f0c1c53
Encoding settings : cabac=1 / ref=4 / deblock=1:0:0 / analyse=0x3:0x133 / me=umh / subme=7 / psy=1 / psy_rd=1.00:0.00 / mixed_ref=1 / me_range=16 / chroma_me=1 / trellis=1 / 8x8dct=1 / cqm=0 / deadzone=21,11 / fast_pskip=0 / chroma_qp_offset=-2 / threads=12 / lookahead_threads=2 / sliced_threads=0 / nr=0 / decimate=1 / interlaced=0 / bluray_compat=0 / constrained_intra=0 / bframes=3 / b_pyramid=2 / b_adapt=2 / b_bias=0 / direct=3 / weightb=1 / open_gop=0 / weightp=2 / keyint=250 / keyint_min=23 / scenecut=40 / intra_refresh=0 / rc_lookahead=50 / rc=2pass / mbtree=1 / bitrate=8394 / ratetol=1.0 / qcomp=0.60 / qpmin=0 / qpmax=69 / qpstep=4 / cplxblur=20.0 / qblur=0.5 / ip_ratio=1.40 / aq=1:1.00
Language : English
Default : Yes
Forced : No
Audio
ID : 2
Format : DTS
Format/Info : Digital Theater Systems
Mode : 16
Format settings, Endianness : Big
Codec ID : A_DTS
Duration : 1h 34mn
Bit rate mode : Constant
Bit rate : 1 509 Kbps
Channel count : 6 channels
Channel positions : Front: L C R, Side: L R, LFE
Sampling rate : 48.0 KHz
Bit depth : 24 bits
Compression mode : Lossy
Stream size : 1 023 MiB (15%)
Language : English
Default : Yes
Forced : No
Text #1
ID : 3
Format : UTF-8
Codec ID : S_TEXT/UTF8
Codec ID/Info : UTF-8 Plain Text
Language : Russian
Default : Yes
Forced : Yes
Text #2
ID : 4
Format : UTF-8
Codec ID : S_TEXT/UTF8
Codec ID/Info : UTF-8 Plain Text
Language : Spanish
Default : No
Forced : No
Menu
00:00:00.000 : en:00:00:00.000
00:05:03.970 : en:00:05:03.970
00:07:12.974 : en:00:07:12.974
00:10:20.995 : en:00:10:20.995
00:13:50.038 : en:00:13:50.038
00:18:18.931 : en:00:18:18.931
00:20:45.035 : en:00:20:45.035
00:26:54.988 : en:00:26:54.988
00:30:32.998 : en:00:30:32.998
00:36:07.957 : en:00:36:07.957
00:41:52.009 : en:00:41:52.009
00:47:30.931 : en:00:47:30.931
00:50:25.981 : en:00:50:25.981
00:54:53.999 : en:00:54:53.999
00:57:53.970 : en:00:57:53.970
01:00:53.024 : en:01:00:53.024
01:04:37.957 : en:01:04:37.957
01:07:01.893 : en:01:07:01.893
01:11:48.971 : en:01:11:48.971
01:15:38.951 : en:01:15:38.951
01:20:49.470 : en:01:20:49.470
01:24:13.423 : en:01:24:13.423
01:28:19.878 : en:01:28:19.878
01:31:12.926 : en:01:31:12.926
Скриншоты

_________________
Показать сообщения:    

Текущее время: Сегодня 15:41

Часовой пояс: GMT



Вы не можете начинать темы
Вы не можете отвечать на сообщения
Вы не можете редактировать свои сообщения
Вы не можете удалять свои сообщения
Вы не можете голосовать в опросах
Вы не можете прикреплять файлы к сообщениям
Вы не можете скачивать файлы