Ивановский Торрент трекер
Яндекс.Погода
 

[Цитировать]
HUNTER

Упрямая невестка
Lover-in-Law | Aniyome wa Ijjibari | 兄嫁はいじっぱり

Год выпуска :2008
Страна : Япония
Жанр: хентай
Продолжительность : 30 мин.
Кол-во эпизодов : 1-2 из 2
Студия : Discovery
Режиссёр : Неизвестен-Субтитры : Присутствуют(RUS - внешним файлом,подключаемые;ASS)
Перевод : Субтитры
Цензура : Отсутствует-Описание : Отличный не жесткий хентай, никаких тентакли, щупалец и изнасилований беззащитных девушек. Незамысловатый сюжетик, отличная рисовка, класные сею, очень понравилась мягкая динамика сцен. Вердикт 10 из 10.
ka4mar©-Качество : DVDRip
Формат : AVI
Видео : XviD, 704x396 (16:9), ~ 900 kbps, ~ 119.880 fps
Аудио: JAP - MP3, 48 kHz, 2ch, ~ 192 kbps-Релиз от: -

Интересные факты

Адаптация хентайной игры компании TinkerBell.

MediaInfo

General
Format : AVI
Format/Info : Audio Video Interleave
File size : 179 MiB
Duration : 23mn 23s
Overall bit rate : 1 072 Kbps
Writing application : VirtualDubMod 1.5.10.1 (build 2366/release)
Writing library : VirtualDubMod build 2366/release
Video
Format : VC-1
Codec ID : WMV3
Codec ID/Info : Windows Media Video 9
Codec ID/Hint : WMV3
Duration : 23mn 23s
Bit rate : 834 Kbps
Width : 704 pixels
Height : 396 pixels
Display aspect ratio : 16:9
Frame rate : 119.880 fps
Bit depth : 8 bits
Bits/(Pixel*Frame) : 0.025
Stream size : 140 MiB (78%)
Audio
ID : 1
Format : MPEG Audio
Format version : Version 1
Format profile : Layer 3
Mode : Joint stereo
Codec ID : 55
Codec ID/Hint : MP3
Duration : 23mn 23s
Bit rate mode : Constant
Bit rate : 192 Kbps
Channel(s) : 2 channels
Sampling rate : 48.0 KHz
Stream size : 32.1 MiB (18%)
Alignment : Split accross interleaves
Interleave, duration : 8 ms (1.00 video frame)
Interleave, preload duration : 500 ms
Writing library : Gogo >=3.0

Скриншоты:

-
Показать сообщения:    

Текущее время: 24-Окт 08:42

Часовой пояс: UTC - 1


Вы не можете начинать темы
Вы не можете отвечать на сообщения
Вы не можете редактировать свои сообщения
Вы не можете удалять свои сообщения
Вы не можете голосовать в опросах
Вы не можете прикреплять файлы к сообщениям
Вы не можете скачивать файлы

!ВНИМАНИЕ!
Сайт не предоставляет электронные версии произведений, а занимается лишь коллекционированием и каталогизацией ссылок, присылаемых и публикуемых на форуме нашими читателями. Если вы являетесь правообладателем какого-либо представленного материала и не желаете, чтобы ссылка на него находилась в нашем каталоге, свяжитесь с нами, и мы незамедлительно удалим ее. Файлы для обмена на трекере предоставлены пользователями сайта, и администрация не несет ответственности за их содержание. Просьба не заливать файлы, защищенные авторскими правами, а также файлы нелегального содержания!