Ивановский Торрент трекер
Яндекс.Погода
 

[Цитировать]
HUNTER

Управление поступками подчиненных-
Год выпуска: 2011
Страна: Россия
Сайт производителя: отсутствуeт
Тематика: психология
Тип материала: Обучающее видео-Продолжительность: 12:49:20
Автор: Александр Фридман-Язык: Русский
Субтитры: отсутствуют-Описание: Роль регламентов в оперативном управлении: совмещение с другими "инструментами", эффективное применение и типичные ошибки руководителей;
Иерархия и виды корпоративных регламентов: как определить, что регламентировать, а что не стоит, обеспечить стандарт для регулярных работ и не "задушить" компанию?
Координация кросс - процессов: как исключить "чёрные дыры" и дублирование функций при взаимодействии различных подразделений во время выполнения задач?
Как обеспечить эффективность регламентов: виды поддержки, различные цели применения и ключевые принципы организации рационального обновления;
Почему порученная работа не выполняется, так как надо: типичные ошибки руководителей при делегировании рабочих заданий и как можно их избежать;
"Уровни" делегирования: как готовиться к делегированию, к чему приводит неправильная оценка квалификации и мотивации подчинённых при делегировании рабочих заданий и как избежать этой ошибки;
Двустороннее противодействие делегированию: что мешает руководителям и подчиненным при делегировании рабочих заданий и как нейтрализовать эти препятствия?
"Обратное делегирование": почему порученная работа возвращается к руководителю и как приучить подчинённых самостоятельно решать то, что входит в их обязанности?
Координация и взаимодействие: роль организованной обратной связи в процессе исполнения порученной работы;
Как развивать квалификацию подчинённых в процессе координации: различные виды обратной связи и их сознательный выбор в зависимости от реальной ситуации;
Основные источники ошибок подчинённых: почему они их совершают и как их предотвратить?
Контроль: роль в оперативном управлении, почему его так не любят подчинённые, возможные последствия анализ типичных ошибок руководителей;
Виды контроля: цели, различия, выполнение, типичные ошибки в использовании и рациональный выбор акцентов в зависимости от вида работы и репутации подчинённого;
Оперативное мотивирование подчиненных: роль руководителя в инсталляции и сопровождении корпоративной системы, основные компоненты мотивации и наиболее рациональное совмещение с другими управленческими "инструментами".
-Качество: DVDRip
Формат: AVI
Видео кодек: XviD
Аудио кодек: AC3
Видео: XviD, 720x416, (4:3), 636 Kbps, 25.000 fps, 0.085 b/px
Аудио: 48.0 kHz, AC3, 2 ch, ~ 192 Kbps-

MediaInfo

Код: copyText_writeLink('this.parentNode.parentNode.nextSibling.nextSibling'); Общее
Полное имя : D:\обуч\upravlenie_postupkami_podchinennih\Управление поступками подчиненных disk1-1.avi
Формат : AVI
Формат/Информация : Audio Video Interleave
Размер файла : 377 Мбайт
Продолжительность : 1 ч. 14 м.
Общий поток : 713 Кбит/сек
Программа кодирования : VirtualDubMod 1.5.4.1 (build 2178/release)
Библиотека кодирования : VirtualDubMod build 2178/release
Видео
Идентификатор : 0
Формат : MPEG-4 Visual
Профиль формата : Advanced Simple@L5
Параметр BVOP формата : 1
Параметр QPel формата : Нет
Параметр GMC формата : Без точки перехода
Параметр матрицы формата : Выборочная
Идентификатор кодека : XVID
Идентификатор кодека/Подсказка : XviD
Продолжительность : 1 ч. 14 м.
Битрейт : 514 Кбит/сек
Ширина : 720 пикселей
Высота : 416 пикселей
Соотношение сторон : 1,731
Частота кадров : 25,000 кадров/сек
Цветовое пространство : YUV
Субдискретизация насыщенности : 4:2:0
Битовая глубина : 8 бит
Тип развёртки : Прогрессивная
Метод сжатия : С потерями
Бит/(Пиксели*Кадры) : 0.069
Размер потока : 272 Мбайт (72%)
Библиотека кодирования : XviD 1.2.0.dev47 (UTC 2006-11-01)
Аудио
Идентификатор : 1
Формат : AC-3
Формат/Информация : Audio Coding 3
Расширение режима : CM (complete main)
Параметр Endianness формата : Big
Идентификатор кодека : 2000
Продолжительность : 1 ч. 14 м.
Вид битрейта : Постоянный
Битрейт : 192 Кбит/сек
Каналы : 2 канала
Расположение каналов : Front: L R
Частота : 48,0 КГц
Битовая глубина : 16 бит
Метод сжатия : С потерями
Размер потока : 102 Мбайт (27%)
Выравнивание : Разделение по промежуткам
Продолжительность промежутка : 96 мс. (2,40 видеокадра)
Время предзагрузки промежутка : 96 мс.

Скриншоты

-
Показать сообщения:    

Текущее время: 17-Окт 23:17

Часовой пояс: UTC - 1


Вы не можете начинать темы
Вы не можете отвечать на сообщения
Вы не можете редактировать свои сообщения
Вы не можете удалять свои сообщения
Вы не можете голосовать в опросах
Вы не можете прикреплять файлы к сообщениям
Вы не можете скачивать файлы

!ВНИМАНИЕ!
Сайт не предоставляет электронные версии произведений, а занимается лишь коллекционированием и каталогизацией ссылок, присылаемых и публикуемых на форуме нашими читателями. Если вы являетесь правообладателем какого-либо представленного материала и не желаете, чтобы ссылка на него находилась в нашем каталоге, свяжитесь с нами, и мы незамедлительно удалим ее. Файлы для обмена на трекере предоставлены пользователями сайта, и администрация не несет ответственности за их содержание. Просьба не заливать файлы, защищенные авторскими правами, а также файлы нелегального содержания!