Важное объявление!
У Нас Все раздачи мультитрекерные, при нуле пиров в релизах, можете смело вставать на закачку!
 
Автор Сообщение

neon10_10

Стаж:
5 лет 11 месяцев
Сообщений:
63

Репутация: 49

[+] [-]
Вне форума [Профиль] [ЛС]

Университет монстров / Monsters University
«Самый страшный универ в мире»
-Год выпуска: 2013
Страна: США
Жанр: мультфильм, фэнтези, комедия, приключения, семейный
Продолжительность: 01:43:48
Перевод: Профессиональный (дублированный)[цифровая лицензия iTunes]-Режиссер: Дэн Скэнлон-В ролях: Джон Гудман (John Goodman), Билли Кристал (Billy Crystal), Стив Бушеми (Steve Buscemi), Хелен Миррен (Helen Mirren), Питер Сон (Peter Sohn), Джоэль Мюррей (Joel Murray), Шон Хейс (Sean Hayes), Дэйв Фоли (Dave Foley), Чарли Дэй (Charlie Day), Альфред Молина (Alfred Molina), Тайлер Лабайн (Tyler Labine), Нэйтан Филлион (Nathan Fillion), Обри Плаза (Aubrey Plaza), Бобби Мойнихэн мл. (Bobby Moynihan), Ной Джонстон (Noah Johnston), Джулия Суини (Julia Sweeney), Бонни Хант (Bonnie Hunt)-Описание: Майк и Салли — самые опытные пугатели в Монстрополисе, но так было далеко не всегда. Когда они встретились впервые, эти монстры терпеть друг друга не могли. «Университет Монстров» — история о том, как наши старые знакомые прошли путь от взаимной неприязни к крепкой дружбе.-Сборы в США: $266 530 366
Сборы в мире: + $473 100 000 = $739 630 366
Сборы в России: $21 058 779- -Качество: BDRip
Формат: AVI
Видео кодек: XviD
Аудио кодек: AC3
Видео: 720x400 (16:9), 23.976 fps, XviD, 1 607 Kbps
Аудио #1: AC3, 384 Kbps, 48.0 KHz, 6 ch-

MediaInfo

Format : AVI
Format/Info : Audio Video Interleave
File size : 1.45 GiB
Duration : 1h 43mn
Overall bit rate : 2 000 Kbps
Writing application : VirtualDubModRus 1.5.10.2 (build 2542/release)
Writing library : VirtualDubMod build 2542/release
Video
ID : 0
Format : MPEG-4 Visual
Format profile : Advanced Simple@L5
Format settings, BVOP : Yes
Format settings, QPel : No
Format settings, GMC : No warppoints
Format settings, Matrix : Custom
Codec ID : XVID
Codec ID/Hint : XviD
Duration : 1h 43mn
Bit rate : 1 607 Kbps
Width : 720 pixels
Height : 400 pixels
Display aspect ratio : 16:9
Frame rate : 23.976 fps
Color space : YUV
Chroma subsampling : 4:2:0
Bit depth : 8 bits
Scan type : Progressive
Compression mode : Lossy
Bits/(Pixel*Frame) : 0.233
Stream size : 1.16 GiB (80%)
Writing library : XviD 65
Audio
ID : 1
Format : AC-3
Format/Info : Audio Coding 3
Mode extension : CM (complete main)
Format settings, Endianness : Big
Codec ID : 2000
Duration : 1h 43mn
Bit rate mode : Constant
Bit rate : 384 Kbps
Channel count : 6 channels
Channel positions : Front: L C R, Side: L R, LFE
Sampling rate : 48.0 KHz
Bit depth : 16 bits
Compression mode : Lossy
Stream size : 285 MiB (19%)
Alignment : Split accross interleaves
Interleave, duration : 42 ms (1.00 video frame)
Interleave, preload duration : 500 ms

Скриншоты

-

_________________
dchub://neonhub37.no-ip.info:411
Показать сообщения:    

Текущее время: Сегодня 23:01

Часовой пояс: GMT



Вы не можете начинать темы
Вы не можете отвечать на сообщения
Вы не можете редактировать свои сообщения
Вы не можете удалять свои сообщения
Вы не можете голосовать в опросах
Вы не можете прикреплять файлы к сообщениям
Вы не можете скачивать файлы
Наши партнеры: интернет магазин Ивановского трикотажа textilla.ru