Ивановский Торрент трекер
Яндекс.Погода
 

[Цитировать]
HUNTER

Унесенные Призраками-«The tunnel led Chihiro to a mysterious town...»- Год выпуска: 2001
Страна: Япония
Жанры: приключения, фэнтези, драма, мистика
Продолжительность: 02:04:35-Перевод:

  • русские субтитры с R5 от студии Reanimedia
  • русские субтитры от toph
  • английские субтитры с Blu Ray
    -Озвучка:
  • Полное дублирование с R5 от студии Reanimedia / Невафильм
    -Режиссер: Миядзаки Хаяо
    Студия: -Описание: Маленькая Тихиро вместе с мамой и папой переезжают в новый дом. Заблудившись по дороге, они оказываются в странном пустынном городе, где их ждет великолепный пир. Родители с жадностью набрасываются на еду и к ужасу девочки превращаются в свиней, став пленниками злой колдуньи Юбабы, властительницы таинственного мира древних богов и могущественных духов.
    Теперь, оказавшись одна среди магических существ и загадочных видений, отважная Тихиро должна придумать, как избавить своих родителей от чар коварной старухи и спастись из пугающего царства призраков...-Раздача от by FREEDONOR- Премия «Оскар» за Лучший анимационный полнометражный фильм, 2003 г.
    Премия «Золотой медведь» на Берлинском кинофестивале, 2002 г.- - Качество: BDRip (Wiki)
    Формат: MKV
    Тип видео: Без хардсаба
    Видео кодек: x264
    Аудио кодек: AC3, DTS
    Видео: MPEG4 Video (H264), 5 640 Kbps, 1280x690, 23.976 fps, 8 bit
    Аудио 1: - DTS, 1509 Kbps, 48KHz, 6ch
    Аудио 2: - AС3, 448 Kbps, 48KHz, 6ch [Дублированная, Reanimedia] (отдельным файлом)

    Знаете ли вы, что...
  • По изначальному замыслу режиссера фильм должен был длиться более трех часов, но его пришлось изрядно сократить.
  • Фэнтезийная сцена принятия ванны речным духом основана на реальных событиях в жизни Миядзаки, который однажды участвовал в очистке реки и среди прочего достал с ее дна велосипед.
  • Это первый фильм, достигший планки сборов в 200 млн. долларов еще до проката на территории США.
  • Дословно название фильма переводится как «Сэн и таинственное исчезновение Тихиро», а «Унесенные призраками»(«Spirited away») — придуманное западными прокатчиками название.
  • Семья Тихиро путешествовала на седане первого поколения модели A4 марки Audi.
  • Персонаж «Безликий» по многим причинам олицетворяет червяка-шелкопряда (Silk Worm), играющего значительную роль в японской культуре.
  • Внешность большинства богов Миядзаки придумал самостоятельно, часть почерпнул из японского фольклора.
  • Фильм стал самым кассовым в Японской истории (сборы составили 229 млн. 607 тыс. долларов). Это был первый фильм, который заработал 200 млн. $ в мировом прокате до показа в Соединённых Штатах.
  • Фильм номинировался 56 раз на различных кинопремиях и кинофестивалях и 37 из них выиграл (включая Оскар).
Подробные тех. данные
General
Unique ID : 188352932265775807983494715198913546935 (0x8DB3748A5F135D1AB47934324A968AB7)
Format : Matroska
Format version : Version 4 / Version 2
File size : 6.22 GiB
Duration : 2h 4mn
Overall bit rate : 7 151 Kbps
Movie name : Jubow @ WiKi
Encoded date : UTC 2014-07-01 10:08:40
Writing application : mkvmerge v6.8.0 ('Theme for Great Cities') 64bit built on Mar 2 2014 21:34:26
Writing library : libebml v1.3.0 + libmatroska v1.4.1
Video
ID : 1
Format : AVC
Format/Info : Advanced Video Codec
Format profile : High@L4.1
Format settings, CABAC : Yes
Format settings, ReFrames : 9 frames
Codec ID : V_MPEG4/ISO/AVC
Duration : 2h 4mn
Bit rate : 5 640 Kbps
Width : 1 280 pixels
Height : 690 pixels
Display aspect ratio : 1.85:1
Original display aspect ratio : 1.85:1
Frame rate mode : Constant
Frame rate : 23.976 fps
Color space : YUV
Chroma subsampling : 4:2:0
Bit depth : 8 bits
Scan type : Progressive
Bits/(Pixel*Frame) : 0.266
Stream size : 4.78 GiB (77%)
Writing library : x264 core 129 r2245+704+36 8e61944 tMod+MixAQ [8-bit@4:2:0 X86_64]
Encoding settings : cabac=1 / ref=9 / deblock=1:-1:-1 / analyse=0x3:0x133 / me=umh / subme=11 / psy=1 / fade_compensate=0.00 / psy_rd=0.60:0.00 / mixed_ref=1 / me_range=32 / chroma_me=1 / trellis=2 / 8x8dct=1 / cqm=0 / deadzone=21,11 / fast_pskip=0 / chroma_qp_offset=-2 / threads=18 / lookahead_threads=3 / sliced_threads=0 / nr=0 / decimate=0 / interlaced=0 / bluray_compat=0 / constrained_intra=0 / fgo=0 / bframes=10 / b_pyramid=2 / b_adapt=2 / b_bias=0 / direct=3 / weightb=1 / open_gop=0 / weightp=2 / keyint=250 / keyint_min=23 / scenecut=40 / intra_refresh=0 / rc=2pass / mbtree=0 / bitrate=5640 / ratetol=1.0 / qcomp=0.70 / qpmin=0 / qpmax=69 / qpstep=4 / cplxblur=20.0 / qblur=0.5 / ip_ratio=1.40 / pb_ratio=1.30 / aq=3 / aq-strength=0.95 / aq-sensitivity=10.00 / aq-ifactor=1.00 / aq-pfactor=1.00 / aq-bfactor=1.00 / aq2=0
Language : Japanese
Default : Yes
Forced : No
Audio
ID : 2
Format : DTS
Format/Info : Digital Theater Systems
Format profile : ES
Mode : 16
Format settings, Endianness : Big
Codec ID : A_DTS
Duration : 2h 4mn
Bit rate mode : Constant
Bit rate : 1 509 Kbps
Channel(s) : 7 channels / 6 channels
Channel positions : Front: L C R, Side: L R, Back: C, LFE / Front: L C R, Side: L R, LFE
Sampling rate : 48.0 KHz
Bit depth : 24 bits
Compression mode : Lossy
Stream size : 1.31 GiB (21%)
Language : Japanese
Default : Yes
Forced : No
Text
ID : 3
Format : UTF-8
Codec ID : S_TEXT/UTF8
Codec ID/Info : UTF-8 Plain Text
Language : English
Default : No
Forced : No
Menu
00:00:00.000 : en:00:00:00.000
00:01:39.099 : en:00:01:39.099
00:03:16.237 : en:00:03:16.237
00:07:23.526 : en:00:07:23.526
00:10:45.394 : en:00:10:45.394
00:17:03.021 : en:00:17:03.021
00:22:48.533 : en:00:22:48.533
00:28:36.047 : en:00:28:36.047
00:33:28.172 : en:00:33:28.172
00:38:21.674 : en:00:38:21.674
00:44:11.815 : en:00:44:11.815
00:48:26.820 : en:00:48:26.820
00:54:31.351 : en:00:54:31.351
01:02:09.016 : en:01:02:09.016
01:08:11.587 : en:01:08:11.587
01:14:36.847 : en:01:14:36.847
01:19:10.579 : en:01:19:10.579
01:25:39.759 : en:01:25:39.759
01:31:18.889 : en:01:31:18.889
01:37:33.806 : en:01:37:33.806
01:45:18.937 : en:01:45:18.937
01:50:25.118 : en:01:50:25.118
01:52:51.097 : en:01:52:51.097
01:55:14.198 : en:01:55:14.198
02:00:53.579 : en:02:00:53.579
02:04:31.255 : en:02:04:31.255
Скриншоты Как подключить альтернативную (внешнюю) звуковую дорожку к видео
Показать сообщения:    

Текущее время: 23-Окт 03:33

Часовой пояс: UTC - 1


Вы не можете начинать темы
Вы не можете отвечать на сообщения
Вы не можете редактировать свои сообщения
Вы не можете удалять свои сообщения
Вы не можете голосовать в опросах
Вы не можете прикреплять файлы к сообщениям
Вы не можете скачивать файлы

!ВНИМАНИЕ!
Сайт не предоставляет электронные версии произведений, а занимается лишь коллекционированием и каталогизацией ссылок, присылаемых и публикуемых на форуме нашими читателями. Если вы являетесь правообладателем какого-либо представленного материала и не желаете, чтобы ссылка на него находилась в нашем каталоге, свяжитесь с нами, и мы незамедлительно удалим ее. Файлы для обмена на трекере предоставлены пользователями сайта, и администрация не несет ответственности за их содержание. Просьба не заливать файлы, защищенные авторскими правами, а также файлы нелегального содержания!