Умирающий свет / Dying of the Light (Пол Шредер / Paul Schrader) [2014, США, триллер, драма, BDRip 720p] VO (Есарев) + Sub Eng + Original Eng :: Ивановский Торрент трекер
Важное объявление!
У Нас Все раздачи мультитрекерные, при нуле пиров в релизах, можете смело вставать на закачку!
Статистика раздачи
Размер:     |    Зарегистрирован:     |    Скачан:     |   
Нет
 
     
 
 
Автор Сообщение

HUNTER

Стаж:
4 года 11 месяцев
Сообщений:
66066

Репутация: 101

[+] [-]
Вне форума [Профиль] [ЛС]

Умирающий свет / Dying of the Light
Страна: США
Жанр: триллер, драма
Год выпуска: 2014
Продолжительность: 01:34:05
Перевод: Одноголосый закадровый (Дмитрий Есарев)
Cубтитры: английские
Оригинальная аудиодорожка: английский
Режиссер: Пол Шредер / Paul Joseph Schrader
В ролях: Николас Кейдж, Антон Ельчин, Александр Карим, Ирен Жакоб, Аймен Хамдуши, Клавдий Питерс, Адетомива Едун, Роберт Дж. Слэйд, Дерек Эзенагу, Джефф Френсис
Описание: Эван Лэйк, выполняющий канцелярскую работу сотрудник ЦРУ, вынужден подать в отставку из-за начавших у него проявляться признаков сумасшествия. В это же время он обнаруживает, что подвергавший его мукам Мухаммед Банир, который уже два десятка лет считается мертвым, на самом деле жив. Заручившись помощью молодого агента, Эван отправляется на поиски Банира…

Тип релиза: BDRip 720p
Контейнер: MKV
Видео: MPEG-4 AVC, 5596 Кбит/с, 1280x544, 23,976 fps
Аудио: Rus, AC3, 384 kb/s (6 ch), 48 kHz
Аудио 2: Eng, DTS, 1510 kb/s (6 ch), 48 kHz
Формат субтитров: softsub (SRT)

MediaInfo

Format : Matroska
Format version : Version 4 / Version 2
File size : 5.02 GiB
Duration : 1h 34mn
Overall bit rate : 7 641 Kbps
Movie name : Tonik
Encoded date : UTC 2015-02-04 13:53:37
Writing application : mkvmerge v7.1.0 ('Good Love') 64bit built on Jul 27 2014 13:06:55
Writing library : libebml v1.3.0 + libmatroska v1.4.1
_STATISTICS_WRITING_APP : mkvmerge v7.1.0 ('Good Love') 64bit built on Jul 27 2014 13:06:55
_STATISTICS_WRITING_DATE_UTC : 2015-02-04 13:53:37
_STATISTICS_TAGS : BPS DURATION NUMBER_OF_FRAMES NUMBER_OF_BYTES
DURATION : 01:34:06.432000000
NUMBER_OF_FRAMES : 176451
NUMBER_OF_BYTES : 271028736
Video
ID : 1
Format : AVC
Format/Info : Advanced Video Codec
Format profile : High@L4.1
Format settings, CABAC : Yes
Format settings, ReFrames : 12 frames
Codec ID : V_MPEG4/ISO/AVC
Duration : 1h 34mn
Bit rate : 5 596 Kbps
Width : 1 280 pixels
Height : 544 pixels
Display aspect ratio : 2.35:1
Frame rate mode : Constant
Frame rate : 23.976 fps
Color space : YUV
Chroma subsampling : 4:2:0
Bit depth : 8 bits
Scan type : Progressive
Bits/(Pixel*Frame) : 0.335
Stream size : 3.68 GiB (73%)
Writing library : x264 core 142 r2431+42 c69a006 tMod [8-bit@all X86_64]
Encoding settings : cabac=1 / ref=12 / deblock=1:-3:-3 / analyse=0x3:0x133 / me=umh / subme=11 / psy=1 / fade_compensate=0.00 / psy_rd=1.05:0.00 / mixed_ref=1 / me_range=24 / chroma_me=1 / trellis=2 / 8x8dct=1 / cqm=0 / deadzone=21,11 / fast_pskip=0 / chroma_qp_offset=-2 / threads=24 / lookahead_threads=4 / sliced_threads=0 / nr=0 / decimate=0 / interlaced=0 / bluray_compat=0 / constrained_intra=0 / fgo=0 / bframes=9 / b_pyramid=2 / b_adapt=2 / b_bias=0 / direct=3 / weightb=1 / open_gop=0 / weightp=2 / keyint=250 / keyint_min=23 / scenecut=40 / intra_refresh=0 / rc=crf / mbtree=0 / crf=17.0000 / qcomp=0.65 / qpmin=0:0:0 / qpmax=69:69:69 / qpstep=4 / ip_ratio=1.20 / pb_ratio=1.10 / aq=4:0.70 / aq-sensitivity=10.00 / aq-factor=1.00:1.00:1.00 / aq2=0 / aq3=0
Language : English
Default : Yes
Forced : No
_STATISTICS_WRITING_APP : mkvmerge v7.1.0 ('Good Love') 64bit built on Jul 27 2014 13:06:55
_STATISTICS_WRITING_DATE_UTC : 2015-02-04 13:53:37
_STATISTICS_TAGS : BPS DURATION NUMBER_OF_FRAMES NUMBER_OF_BYTES
DURATION : 01:34:06.474000000
NUMBER_OF_FRAMES : 135380
NUMBER_OF_BYTES : 4054783201
Audio #1
ID : 2
Format : AC-3
Format/Info : Audio Coding 3
Mode extension : CM (complete main)
Format settings, Endianness : Big
Codec ID : A_AC3
Duration : 1h 34mn
Bit rate mode : Constant
Bit rate : 384 Kbps
Channel(s) : 6 channels
Channel positions : Front: L C R, Side: L R, LFE
Sampling rate : 48.0 KHz
Bit depth : 16 bits
Compression mode : Lossy
Stream size : 258 MiB (5%)
Title : Есарев
Language : Russian
Default : Yes
Forced : No
Audio #2
ID : 3
Format : DTS
Format/Info : Digital Theater Systems
Mode : 16
Format settings, Endianness : Big
Codec ID : A_DTS
Duration : 1h 34mn
Bit rate mode : Constant
Bit rate : 1 509 Kbps
Channel(s) : 6 channels
Channel positions : Front: L C R, Side: L R, LFE
Sampling rate : 48.0 KHz
Bit depth : 24 bits
Compression mode : Lossy
Stream size : 1 016 MiB (20%)
Language : English
Default : No
Forced : No
Text #1
ID : 4
Format : UTF-8
Codec ID : S_TEXT/UTF8
Codec ID/Info : UTF-8 Plain Text
Title : Forced
Language : English
Default : No
Forced : No
Text #2
ID : 5
Format : UTF-8
Codec ID : S_TEXT/UTF8
Codec ID/Info : UTF-8 Plain Text
Language : English
Default : No
Forced : No
Menu
00:00:00.000 : en:00:00:00.000
00:03:51.898 : en:00:03:51.898
00:11:12.797 : en:00:11:12.797
00:15:47.488 : en:00:15:47.488
00:20:29.937 : en:00:20:29.937
00:25:37.202 : en:00:25:37.202
00:32:46.047 : en:00:32:46.047
00:38:48.952 : en:00:38:48.952
00:42:17.285 : en:00:42:17.285
00:47:37.813 : en:00:47:37.813
00:55:23.946 : en:00:55:23.946
01:01:00.615 : en:01:01:00.615
01:06:51.674 : en:01:06:51.674
01:12:12.495 : en:01:12:12.495
01:20:22.234 : en:01:20:22.234
01:26:14.461 : en:01:26:14.461

Скриншоты


_________________
Показать сообщения:    

Текущее время: Сегодня 20:52

Часовой пояс: GMT



Вы не можете начинать темы
Вы не можете отвечать на сообщения
Вы не можете редактировать свои сообщения
Вы не можете удалять свои сообщения
Вы не можете голосовать в опросах
Вы не можете прикреплять файлы к сообщениям
Вы не можете скачивать файлы