Важное объявление!
У Нас Все раздачи мультитрекерные, при нуле пиров в релизах, можете смело вставать на закачку!
Статистика раздачи
Размер:     |    Зарегистрирован:     |    Скачан:     |   
Нет
 
     
 
 
Автор Сообщение

HUNTER

Стаж:
5 лет
Сообщений:
67968

Репутация: 101

[+] [-]
Вне форума [Профиль] [ЛС]

Ультраамериканцы / American Ultra-
Год выпуска: 2015
Выпущено: США, Швейцария
Жанр: боевик, комедия
Продолжительность: 01:35:42
Перевод: Профессиональный (полное дублирование) Blu-Ray RUS
+ Одноголосый закадровый А.Матвеев
Оригинальная звуковая дорожка: English
Субтитры: Russian (Матвеев), English, English (SDH)-Режиссер: Нима Нуризаде / Nima Nourizadeh
В ролях: Джесси Айзенберг, Кристен Стюарт, Тофер Грейс, Конни Бриттон, Уолтон Гоггинс, Джон Легуизамо, Билл Пуллман, Тони Хейл, Стюарт Грир, Майкл Пападжон
О фильме: А вдруг ты тоже спецагент, обладающий уникальной боевой подготовкой и сверхинтеллектом? Но просто ты забыл об этом… Как Майк Хоуэлл, лоботряс из супермаркета, который безмятежно читает комиксы и курит дурь пока славное прошлое не настигает его. И обдолбанный агент №1 становится мишенью №1.
IDE!
Релиз:
Источник: 1080p Blu-ray AVC DTS-HD MA 7.1
Тип релиза: BDRip 720p
Формат: MKV
Видео: 1280x694 at 23.976 fps, High@L4.1, ~6710 kbps avg
Аудио #01: Russian: 48 kHz, DTS, 3/2 (L,C,R,l,r) + LFE ch, ~1536.00 kbps avg |Дубляж, Blu-Ray RUS|
Аудио #02: Russian: 48 kHz, DTS, 3/2 (L,C,R,l,r) + LFE ch, ~1536 kbps avg |Одноголосый закадровый, А.Матвеев|
Аудио #03: English: 48 kHz, DTS, 3/2 (L,C,R,l,r) + LFE ch, ~1536.00 kbps avg
Семпл-
-

mInfo

Формат : Matroska
Версия формата : Version 4 / Version 2
Размер файла : 7,60 Гбайт
Продолжительность : 1 ч. 35 м.
Общий поток : 11,4 Мбит/сек
Название фильма : American Ultra (2015) - Release for HDCLUB
Дата кодирования : UTC 2016-02-28 10:43:52
Программа кодирования : mkvmerge v7.0.0 ('Where We Going') 32bit built on Jun 9 2014 15:08:34
Библиотека кодирования : libebml v1.3.0 + libmatroska v1.4.1
DURATION : 01:29:18.185000000
NUMBER_OF_FRAMES : 1117
NUMBER_OF_BYTES : 35807
_STATISTICS_WRITING_APP : mkvmerge v7.0.0 ('Where We Going') 32bit built on Jun 9 2014 15:08:34
_STATISTICS_WRITING_DATE_UTC : 2016-02-28 10:43:52
_STATISTICS_TAGS : BPS DURATION NUMBER_OF_FRAMES NUMBER_OF_BYTES
Видео
Идентификатор : 1
Формат : AVC
Формат/Информация : Advanced Video Codec
Профиль формата : High@L4.1
Параметр CABAC формата : Да
Параметр ReFrames формата : 9 кадров
Идентификатор кодека : V_MPEG4/ISO/AVC
Продолжительность : 1 ч. 35 м.
Битрейт : 6622 Кбит/сек
Ширина : 1280 пикселей
Высота : 694 пикселя
Соотношение сторон : 1,85:1
Режим частоты кадров : Постоянный
Частота кадров : 23,976 кадра/сек
Цветовое пространство : YUV
Субдискретизация насыщенности : 4:2:0
Битовая глубина : 8 бит
Тип развёртки : Прогрессивная
Бит/(Пиксели*Кадры) : 0.311
Размер потока : 4,43 Гбайт (58%)
Библиотека кодирования : x264 core 148 r2638+53 bb29004 t_mod_Custom [8-bit@all X86_64]
Настройки программы : cabac=1 / ref=9 / deblock=1:-3:-3 / analyse=0x3:0x133 / me=umh / subme=11 / psy=1 / fade_compensate=0.00 / psy_rd=1.05:0.00 / mixed_ref=1 / me_range=48 / chroma_me=1 / trellis=2 / 8x8dct=1 / cqm=0 / deadzone=21,11 / fast_pskip=1 / chroma_qp_offset=-2 / threads=8 / lookahead_threads=1 / sliced_threads=0 / nr=0 / decimate=1 / interlaced=0 / bluray_compat=0 / constrained_intra=0 / fgo=0 / bframes=9 / b_pyramid=2 / b_adapt=2 / b_bias=0 / direct=3 / weightb=1 / open_gop=0 / weightp=2 / keyint=250 / keyint_min=23 / scenecut=40 / intra_refresh=0 / rc_lookahead=150 / rc=crf / mbtree=0 / crf=17.6000 / qcomp=0.60 / qpmin=0:0:0 / qpmax=69:69:69 / qpstep=4 / vbv_maxrate=50000 / vbv_bufsize=62500 / crf_max=0.0 / nal_hrd=none / filler=0 / ip_ratio=1.40 / pb_ratio=1.10 / aq=1:0.75 / aq-sensitivity=10.00 / aq-factor=1.00:1.00:1.00 / aq2=0 / aq3=0 / zones=39,505,crf=16/892,906,crf=16/30236,30335,crf=15.5/127078,127095,crf=16.6
Язык : English
Default : Да
Forced : Нет
DURATION : 01:35:41.903000000
NUMBER_OF_FRAMES : 137668
NUMBER_OF_BYTES : 4912750702
_STATISTICS_WRITING_APP : mkvmerge v7.0.0 ('Where We Going') 32bit built on Jun 9 2014 15:08:34
_STATISTICS_WRITING_DATE_UTC : 2016-02-28 10:43:52
_STATISTICS_TAGS : BPS DURATION NUMBER_OF_FRAMES NUMBER_OF_BYTES
Аудио #1
Идентификатор : 2
Формат : DTS
Формат/Информация : Digital Theater Systems
Режим : 16
Параметр Endianness формата : Big
Идентификатор кодека : A_DTS
Продолжительность : 1 ч. 35 м.
Вид битрейта : Постоянный
Битрейт : 1510 Кбит/сек
Каналы : 6 каналов
Расположение каналов : Front: L C R, Side: L R, LFE
Частота : 48,0 КГц
Битовая глубина : 24 бит
Метод сжатия : С потерями
Размер потока : 1,01 Гбайт (13%)
Заголовок : |Дубляж, Blu-Ray RUS|
Язык : Russian
Default : Да
Forced : Нет
Аудио #2
Идентификатор : 3
Формат : DTS
Формат/Информация : Digital Theater Systems
Режим : 16
Параметр Endianness формата : Big
Идентификатор кодека : A_DTS
Продолжительность : 1 ч. 35 м.
Вид битрейта : Постоянный
Битрейт : 1509 Кбит/сек
Каналы : 6 каналов
Расположение каналов : Front: L C R, Side: L R, LFE
Частота : 48,0 КГц
Битовая глубина : 24 бит
Метод сжатия : С потерями
Размер потока : 1,01 Гбайт (13%)
Заголовок : |Одноголосый закадровый, А.Матвеев|
Язык : Russian
Default : Нет
Forced : Нет
Аудио #3
Идентификатор : 4
Формат : DTS
Формат/Информация : Digital Theater Systems
Режим : 16
Параметр Endianness формата : Big
Идентификатор кодека : A_DTS
Продолжительность : 1 ч. 35 м.
Вид битрейта : Постоянный
Битрейт : 1510 Кбит/сек
Каналы : 6 каналов
Расположение каналов : Front: L C R, Side: L R, LFE
Частота : 48,0 КГц
Битовая глубина : 24 бит
Метод сжатия : С потерями
Размер потока : 1,01 Гбайт (13%)
Язык : English
Default : Нет
Forced : Нет
Текст #1
Идентификатор : 5
Формат : UTF-8
Идентификатор кодека : S_TEXT/UTF8
Идентификатор кодека/Информация : UTF-8 Plain Text
Заголовок : Матвеев
Язык : Russian
Default : Нет
Forced : Нет
Текст #2
Идентификатор : 6
Формат : UTF-8
Идентификатор кодека : S_TEXT/UTF8
Идентификатор кодека/Информация : UTF-8 Plain Text
Язык : English
Default : Нет
Forced : Нет
Текст #3
Идентификатор : 7
Формат : UTF-8
Идентификатор кодека : S_TEXT/UTF8
Идентификатор кодека/Информация : UTF-8 Plain Text
Заголовок : SDH
Язык : English
Default : Нет
Forced : Нет
Текст #4
Идентификатор : 8
Формат : UTF-8
Идентификатор кодека : S_TEXT/UTF8
Идентификатор кодека/Информация : UTF-8 Plain Text
Язык : Spanish
Default : Нет
Forced : Нет
Меню #1
00:00:00.000 : en:00:00:00.000
00:03:47.727 : en:00:03:47.727
00:09:28.985 : en:00:09:28.985
00:16:40.583 : en:00:16:40.583
00:22:15.918 : en:00:22:15.918
00:26:45.979 : en:00:26:45.979
00:33:28.632 : en:00:33:28.632
00:37:54.230 : en:00:37:54.230
00:42:31.048 : en:00:42:31.048
00:48:55.849 : en:00:48:55.849
00:55:13.393 : en:00:55:13.393
01:00:11.274 : en:01:00:11.274
01:06:12.302 : en:01:06:12.302
01:10:14.669 : en:01:10:14.669
01:18:38.922 : en:01:18:38.922
01:25:14.693 : en:01:25:14.693
Меню #2
00:00:00.054 : en:00:00:00.054

-
Цитата:
Цитата:


* Сохранены оригинальные главы как на Blu-ray.
* Перевод А.Матвеева выполнен в рамках сервиса "Озвучивание". Спонсор - dikii

_________________
Показать сообщения:    

Текущее время: Сегодня 16:42

Часовой пояс: GMT



Вы не можете начинать темы
Вы не можете отвечать на сообщения
Вы не можете редактировать свои сообщения
Вы не можете удалять свои сообщения
Вы не можете голосовать в опросах
Вы не можете прикреплять файлы к сообщениям
Вы не можете скачивать файлы