Ивановский Торрент трекер
Яндекс.Погода
 

[Цитировать]
HUNTER

Чич и Чонг: Недетский Мульт / Cheech & Chong's Animated Movie
Страна: США
Студия: Big Vision Entertainment, Chamber Bros. Entertainment
Жанр: Комедия
Продолжительность: 01:23:20
Год выпуска: 2013
Перевод: Профессиональный (многоголосый закадровый)
Субтитры: Есть
Режиссёр: Брендон Чамберс, Эрик Чамберс / Branden Chambers, Eric D. Chambers
В ролях: Чич Марин, Томми Чонг-Описание: Это не вас глючит… Это их плющит! Легендарные торчки-шутнички Чич и Чонг снова с вами, – и это их первый улетный мультфильм! Ловите кайф от их нереально ржачных выходок и классических скетчей. Вместе со своим корешем Бастером Тело-Крабом, Чич и Чонг – реальные «мастера укуренного трепа», так что готовьтесь ржать как миленькие… и требовать добавки!- -Качество: BDRip 1080p
Формат: MKV
Видео: MPEG-4 AVC, 1920x1040 (1.85:1), 23.976 fps, 9751 kbps
Аудио 1: Русский, AC3 Dolby Digital, 2 ch, 16-bit, 48 kHz, 192 kbps
Аудио 2: Английский, DTS, 6 ch, 24-bit, 48 kHz, 1510 kbps
Субтитры: Английские
Навигация по главам: есть

Скриншоты

MI


Общее
Уникальный идентификатор : 205233919541629142103831501994072911060 (0x9A669D78D39F972FAEDAD11AEDBAACD4)
Полное имя : D:\Раздачи\Cheech & Chong's Animated Movie.mkv
Формат : Matroska
Версия формата : Version 4 / Version 2
Размер файла : 6,67 Гбайт
Продолжительность : 1 ч. 23 м.
Общий поток : 11,5 Мбит/сек
Название фильма : СПАМ
Дата кодирования : UTC 2013-10-01 22:29:44
Программа кодирования : mkvmerge v6.4.1 ('Omega Point') built on Sep 16 2013 22:05:10
Библиотека кодирования : libebml v1.3.0 libmatroska v1.4.1
Видео
Идентификатор : 1
Формат : AVC
Формат/Информация : Advanced Video Codec
Профиль формата : High@L4.1
Параметр CABAC формата : Да
Параметр ReFrames формата : 4 кадра
Идентификатор кодека : V_MPEG4/ISO/AVC
Продолжительность : 1 ч. 23 м.
Битрейт : 9751 Кбит/сек
Ширина : 1920 пикселей
Высота : 1040 пикселей
Соотношение сторон : 1,85:1
Режим частоты кадров : Постоянный
Частота кадров : 23,976 кадра/сек
Цветовое пространство : YUV
Субдискретизация насыщенности : 4:2:0
Битовая глубина : 8 бит
Тип развёртки : Прогрессивная
Бит/(Пиксели*Кадры) : 0.204
Размер потока : 5,55 Гбайт (83%)
Заголовок : Cheech and Chong's Animated Movie
Библиотека кодирования : x264 core 130 r2273 b3065e6
Настройки программы : cabac=1 / ref=4 / deblock=1:0:0 / analyse=0x3:0x133 / me=umh / subme=7 / psy=1 / psy_rd=1.00:0.00 / mixed_ref=1 / me_range=16 / chroma_me=1 / trellis=1 / 8x8dct=1 / cqm=0 / deadzone=21,11 / fast_pskip=0 / chroma_qp_offset=-2 / threads=36 / lookahead_threads=6 / sliced_threads=0 / nr=0 / decimate=1 / interlaced=0 / bluray_compat=0 / constrained_intra=0 / bframes=3 / b_pyramid=2 / b_adapt=1 / b_bias=0 / direct=1 / weightb=1 / open_gop=0 / weightp=2 / keyint=250 / keyint_min=23 / scenecut=40 / intra_refresh=0 / rc_lookahead=40 / rc=2pass / mbtree=1 / bitrate=9751 / ratetol=1.0 / qcomp=0.60 / qpmin=0 / qpmax=69 / qpstep=4 / cplxblur=20.0 / qblur=0.5 / ip_ratio=1.40 / aq=1:1.00
Default : Да
Forced : Нет
Аудио #1
Идентификатор : 2
Формат : AC-3
Формат/Информация : Audio Coding 3
Расширение режима : CM (complete main)
Параметр Endianness формата : Big
Идентификатор кодека : A_AC3
Продолжительность : 1 ч. 23 м.
Вид битрейта : Постоянный
Битрейт : 192 Кбит/сек
Каналы : 2 канала
Расположение каналов : Front: L R
Частота : 48,0 КГц
Битовая глубина : 16 бит
Метод сжатия : С потерями
Размер потока : 114 Мбайт (2%)
Заголовок : Russian - AC3 Dolby Digital, 2 ch, 192 kbps, 48 kHz
Язык : Russian
Default : Да
Forced : Да
Аудио #2
Идентификатор : 3
Формат : DTS
Формат/Информация : Digital Theater Systems
Режим : 16
Параметр Endianness формата : Big
Идентификатор кодека : A_DTS
Продолжительность : 1 ч. 23 м.
Вид битрейта : Постоянный
Битрейт : 1509 Кбит/сек
Каналы : 6 каналов
Расположение каналов : Front: L C R, Side: L R, LFE
Частота : 48,0 КГц
Битовая глубина : 24 бит
Метод сжатия : С потерями
Размер потока : 900 Мбайт (13%)
Заголовок : Original - DTS, 6 ch, 1510 kbps, 48 kHz
Язык : English
Default : Нет
Forced : Нет
Текст
Идентификатор : 4
Формат : UTF-8
Идентификатор кодека : S_TEXT/UTF8
Идентификатор кодека/Информация : UTF-8 Plain Text
Заголовок : Cheech and Chong's Animated Movie
Язык : English
Default : Да
Forced : Нет
Меню
00:00:00.000 : en:00:00:00.000
00:03:08.814 : en:00:03:08.814
00:06:30.265 : en:00:06:30.265
00:09:49.255 : en:00:09:49.255
00:13:13.835 : en:00:13:13.835
00:16:58.017 : en:00:16:58.017
00:20:13.546 : en:00:20:13.546
00:23:05.551 : en:00:23:05.551
00:24:23.087 : en:00:24:23.087
00:28:32.294 : en:00:28:32.294
00:31:31.723 : en:00:31:31.723
00:34:24.187 : en:00:34:24.187
00:37:54.731 : en:00:37:54.731
00:40:44.734 : en:00:40:44.734
00:42:39.265 : en:00:42:39.265
00:45:24.347 : en:00:45:24.347
00:51:12.736 : en:00:51:12.736
00:52:51.043 : en:00:52:51.043
00:58:36.638 : en:00:58:36.638
01:02:49.599 : en:01:02:49.599
01:05:51.114 : en:01:05:51.114
01:12:26.676 : en:01:12:26.676
01:15:05.126 : en:01:15:05.126
01:16:43.432 : en:01:16:43.432
Показать сообщения:    

Текущее время: 22-Окт 05:39

Часовой пояс: UTC - 1


Вы не можете начинать темы
Вы не можете отвечать на сообщения
Вы не можете редактировать свои сообщения
Вы не можете удалять свои сообщения
Вы не можете голосовать в опросах
Вы не можете прикреплять файлы к сообщениям
Вы не можете скачивать файлы

!ВНИМАНИЕ!
Сайт не предоставляет электронные версии произведений, а занимается лишь коллекционированием и каталогизацией ссылок, присылаемых и публикуемых на форуме нашими читателями. Если вы являетесь правообладателем какого-либо представленного материала и не желаете, чтобы ссылка на него находилась в нашем каталоге, свяжитесь с нами, и мы незамедлительно удалим ее. Файлы для обмена на трекере предоставлены пользователями сайта, и администрация не несет ответственности за их содержание. Просьба не заливать файлы, защищенные авторскими правами, а также файлы нелегального содержания!