Ивановский Торрент трекер
Яндекс.Погода
 

[Цитировать]
димитри37

Уильям Винсент / William Vincent / Shadows And Lies
Страна: США
Жанр: драма
Год выпуска: 2010
Продолжительность: 01:40:41
Перевод: Профессиональный (двухголосый закадровый) студия "Лексикон" по заказу "Камертон-Медиа"
Cубтитры: нет
Оригинальная аудиодорожка: нет
Режиссер: Джей Ананья / Jay Anania
В ролях: Джеймс Франко, Джулианна Николсон, Мартин Донован, Джош Лукас, Зои Листер Джонс, Ти Анания, Луи Анания Норм Голден, Гибсон Фрейзер.
Описание: Сюжет драмы расскажет историю Уильяма Винсента, а точнее историю его эксцентричного и полного курьезов возвращения в Нью-Йорк после четырех лет изгнания, дабы спасти любимую женщину из лап криминального синдиката.

Качество видео: HDRip
Формат видео: AVI
Видео: MPEG4, XviD, 720x400 (16/9), 23.976 fps, 1 747 Kbps (0.253 bit/pixel)
Аудио: AC-3, 48.0 KHz, 2 ch, 192 Kbps, CBR

MediaInfo

Общее
Полное имя : K:\Уильям Винсент.avi
Формат : AVI
Формат/Информация : Audio Video Interleave
Размер файла : 1,37 Гбайт
Продолжительность : 1 ч. 40 м.
Общий поток : 1948 Кбит/сек
Название фильма : Уильям Винсент / William Vincent / Shadows And Lies (2010)
Программа кодирования : VirtualDubMod 1.5.10.2 (build 2540/release)
Библиотека кодирования : VirtualDubMod build 2540/release
Видео
Идентификатор : 0
Формат : MPEG-4 Visual
Профиль формата : Advanced Simple@L5
Параметр BVOP формата : 1
Параметр QPel формата : Нет
Параметр GMC формата : Без точки перехода
Параметр матрицы формата : Default (MPEG)
Идентификатор кодека : XVID
Идентификатор кодека/Подсказка : XviD
Продолжительность : 1 ч. 40 м.
Битрейт : 1747 Кбит/сек
Ширина : 720 пикселей
Высота : 400 пикселей
Соотношение сторон : 16:9
Частота кадров : 23,976 кадра/сек
Цветовое пространство : YUV
Субдискретизация насыщенности : 4:2:0
Битовая глубина : 8 бит
Тип развёртки : Прогрессивная
Метод сжатия : С потерями
Бит/(Пиксели*Кадры) : 0.253
Размер потока : 1,23 Гбайт (90%)
Библиотека кодирования : XviD 58
Аудио
Идентификатор : 1
Формат : AC-3
Формат/Информация : Audio Coding 3
Расширение режима : CM (complete main)
Параметр Endianness формата : Big
Идентификатор кодека : 2000
Продолжительность : 1 ч. 40 м.
Вид битрейта : Постоянный
Битрейт : 192 Кбит/сек
Каналы : 2 канала
Расположение каналов : Front: L R
Частота : 48,0 КГц
Битовая глубина : 16 бит
Метод сжатия : С потерями
Размер потока : 138 Мбайт (10%)
Выравнивание : Разделение по промежуткам
Продолжительность промежутка : 42 мс. (1,00 видеокадр)
Время предзагрузки промежутка : 500 мс.
Заголовок : Профессиональный (двухголосый, закадровый) Культура

Скриншот c названием фильма

Скриншоты


-
Показать сообщения:    

Текущее время: 23-Окт 10:52

Часовой пояс: UTC - 1


Вы не можете начинать темы
Вы не можете отвечать на сообщения
Вы не можете редактировать свои сообщения
Вы не можете удалять свои сообщения
Вы не можете голосовать в опросах
Вы не можете прикреплять файлы к сообщениям
Вы не можете скачивать файлы

!ВНИМАНИЕ!
Сайт не предоставляет электронные версии произведений, а занимается лишь коллекционированием и каталогизацией ссылок, присылаемых и публикуемых на форуме нашими читателями. Если вы являетесь правообладателем какого-либо представленного материала и не желаете, чтобы ссылка на него находилась в нашем каталоге, свяжитесь с нами, и мы незамедлительно удалим ее. Файлы для обмена на трекере предоставлены пользователями сайта, и администрация не несет ответственности за их содержание. Просьба не заливать файлы, защищенные авторскими правами, а также файлы нелегального содержания!