Важное объявление!
У Нас Все раздачи мультитрекерные, при нуле пиров в релизах, можете смело вставать на закачку!
 
Автор Сообщение

HUNTER

Стаж:
4 года 6 месяцев
Сообщений:
60981

Репутация: 101

[+] [-]
Вне форума [Профиль] [ЛС]

Уж кто бы говорил 2 / Look Who's Talking Too
Страна: США
Студия: TriStar Pictures, Big Mouth Production
Жанр: комедия, мелодрама, семейный
Год выпуска: 1990
Продолжительность: 01:20:15
Перевод 1: Профессиональный (двухголосый закадровый) Лицензия
Перевод 2: Профессиональный (многоголосый закадровый) Русский дубляж по заказу СТС
Перевод 3: Профессиональный (двухголосый закадровый) 1 канал
Cубтитры: русские, английские
Оригинальная аудиодорожка: английский
Режиссер: Эми Хекерлинг / Amy Heckerling
В ролях: Керсти Элли, Джон Траволта, Олимпия Дукакис, Элиас Котеас, Брюс Уиллис, Розанна Барр, Дэймон Ваянс, Гильберт Готтфрид, Мэл Брукс, Лорни Сассмен, Меган Милнер и др.
Описание: Во второй части этой замечательной комедии у разговорчивого Майки появляется не менее словоохотливая сестричка. Он никак не мог предположить, что его родители способны на такую подлость. Молли и Джеймс души не чают в малышке Джули и не понимают праведного гнева Майки, который единственный знает, какая она на самом деле. Хорошо, что у маленького ворчуна есть верный друг Эдди. Только ему он может поплакаться в жилетку, точнее, в распашонку.
II Сэмпл II IMDB II
Доп. информация:
Двухголосый перевод, оригинальная шестиканалка и русские субтитры взяты с раздачи WcW
За переводы СТС и 1 канала спасибо SnDamil
Тип релиза: WEB-DL 720p
Контейнер: MKV
Видео: AVC / 1280x720 / 16:9 / 23.976fps / Bit rate 4023Kbps
Аудио 1: AC3 / 48.0 KHz / 6ch. / 448kbps / rus / DVO / Лицензия
Аудио 2: AC3 / 48.0 KHz / 2ch. / 192kbps / rus / MVO / Русский дубляж
Аудио 3: AC3 / 48.0 KHz / 2ch. / 192kbps / rus / DVO / 1 канал
Аудио 2: AC3 / 48.0 KHz / 6ch. / 448kbps / eng / DVD
Аудио 3: AAC-LC / 48.0 KHz / 2ch. / 158kbps / eng / WEB-DL
Формат субтитров: softsub (SRT)

MediaInfo

Общее
Уникальный идентификатор : 172295643384332080483615199262510791061 (0x819EEF134AF5D212A4CB1D7033B5B995)
Полное имя : H:\!_Torrent\Look.Whos.Talking.Too.1990.WEB-DL.720p.by_vedigo.mkv
Формат : Matroska
Версия формата : Version 4 / Version 2
Размер файла : 3,06 Гбайт
Продолжительность : 1 ч. 20 м.
Общий поток : 5464 Кбит/сек
Название фильма : Look.Whos.Talking.Too.1990.WEB-DL.720p.by_vedigo
Дата кодирования : UTC 2015-12-06 09:27:05
Программа кодирования : mkvmerge v8.5.2 ('Crosses') 64bit
Библиотека кодирования : libebml v1.3.3 + libmatroska v1.4.4
Видео
Идентификатор : 1
Формат : AVC
Формат/Информация : Advanced Video Codec
Профиль формата : High@L3.1
Параметр CABAC формата : Нет
Параметр ReFrames формата : 2 кадра
Параметр GOP формата : N=1
Идентификатор кодека : V_MPEG4/ISO/AVC
Продолжительность : 1 ч. 20 м.
Битрейт : 4023 Кбит/сек
Ширина : 1280 пикселей
Высота : 720 пикселей
Соотношение сторон : 16:9
Режим частоты кадров : Постоянный
Частота кадров : 23,976 (23976/1000) кадра/сек
Цветовое пространство : YUV
Субдискретизация насыщенности : 4:2:0
Битовая глубина : 8 бит
Тип развёртки : Прогрессивная
Бит/(Пиксели*Кадры) : 0.182
Размер потока : 2,26 Гбайт (74%)
Заголовок : Look.Whos.Talking.Too.1990.WEB-DL.720p.by_vedigo
Default : Да
Forced : Нет
Цветовой диапазон : Limited
Основные цвета : BT.709
Характеристики трансфера : BT.709
Коэффициенты матрицы : BT.709
Аудио #1
Идентификатор : 2
Формат : AC-3
Формат/Информация : Audio Coding 3
Расширение режима : CM (complete main)
Параметр Endianness формата : Big
Идентификатор кодека : A_AC3
Продолжительность : 1 ч. 20 м.
Вид битрейта : Постоянный
Битрейт : 448 Кбит/сек
Каналы : 6 каналов
Расположение каналов : Front: L C R, Side: L R, LFE
Частота : 48,0 КГц
Частота кадров : 31,250 кадров/сек (1536 spf)
Метод сжатия : С потерями
Размер потока : 257 Мбайт (8%)
Заголовок : DVO
Язык : Russian
Default : Да
Forced : Нет
Аудио #2
Идентификатор : 3
Формат : AC-3
Формат/Информация : Audio Coding 3
Расширение режима : CM (complete main)
Параметр Endianness формата : Big
Идентификатор кодека : A_AC3
Продолжительность : 1 ч. 20 м.
Вид битрейта : Постоянный
Битрейт : 192 Кбит/сек
Каналы : 2 канала
Расположение каналов : Front: L R
Частота : 48,0 КГц
Частота кадров : 31,250 кадров/сек (1536 spf)
Метод сжатия : С потерями
Размер потока : 110 Мбайт (4%)
Заголовок : MVO @ СТС
Язык : Russian
Default : Нет
Forced : Нет
Аудио #3
Идентификатор : 4
Формат : AC-3
Формат/Информация : Audio Coding 3
Расширение режима : CM (complete main)
Параметр Endianness формата : Big
Идентификатор кодека : A_AC3
Продолжительность : 1 ч. 20 м.
Вид битрейта : Постоянный
Битрейт : 192 Кбит/сек
Каналы : 2 канала
Расположение каналов : Front: L R
Частота : 48,0 КГц
Частота кадров : 31,250 кадров/сек (1536 spf)
Метод сжатия : С потерями
Размер потока : 110 Мбайт (4%)
Заголовок : DVO @ 1 канал
Язык : Russian
Default : Нет
Forced : Нет
Аудио #4
Идентификатор : 5
Формат : AC-3
Формат/Информация : Audio Coding 3
Расширение режима : CM (complete main)
Параметр Endianness формата : Big
Идентификатор кодека : A_AC3
Продолжительность : 1 ч. 20 м.
Вид битрейта : Постоянный
Битрейт : 448 Кбит/сек
Каналы : 6 каналов
Расположение каналов : Front: L C R, Side: L R, LFE
Частота : 48,0 КГц
Частота кадров : 31,250 кадров/сек (1536 spf)
Метод сжатия : С потерями
Размер потока : 257 Мбайт (8%)
Заголовок : original @ DVD
Язык : English
Default : Нет
Forced : Нет
Аудио #5
Идентификатор : 6
Формат : AAC
Формат/Информация : Advanced Audio Codec
Профиль формата : LC
Идентификатор кодека : A_AAC
Продолжительность : 1 ч. 20 м.
Битрейт : 158 Кбит/сек
Каналы : 2 канала
Расположение каналов : Front: L R
Частота : 48,0 КГц
Частота кадров : 46,875 кадров/сек (1024 spf)
Метод сжатия : С потерями
Размер потока : 90,5 Мбайт (3%)
Заголовок : original @ WEB-DL
Язык : English
Default : Нет
Forced : Нет
Текст #1
Идентификатор : 7
Формат : UTF-8
Идентификатор кодека : S_TEXT/UTF8
Идентификатор кодека/Информация : UTF-8 Plain Text
Продолжительность : 1 ч. 15 м.
Битрейт : 121 бит/сек
Count of elements : 1008
Размер потока : 67,0 Кбайт (0%)
Заголовок : subtitle rus
Язык : Russian
Default : Нет
Forced : Нет
Текст #2
Идентификатор : 8
Формат : UTF-8
Идентификатор кодека : S_TEXT/UTF8
Идентификатор кодека/Информация : UTF-8 Plain Text
Продолжительность : 1 ч. 20 м.
Битрейт : 72 бит/сек
Count of elements : 1133
Размер потока : 42,5 Кбайт (0%)
Заголовок : subtitle eng
Язык : English
Default : Нет
Forced : Нет

Скриншоты



_________________
Показать сообщения:    

Текущее время: Сегодня 09:40

Часовой пояс: GMT



Вы не можете начинать темы
Вы не можете отвечать на сообщения
Вы не можете редактировать свои сообщения
Вы не можете удалять свои сообщения
Вы не можете голосовать в опросах
Вы не можете прикреплять файлы к сообщениям
Вы не можете скачивать файлы
Наши партнеры: интернет магазин Ивановского трикотажа textilla.ru