Важное объявление!
У Нас Все раздачи мультитрекерные, при нуле пиров в релизах, можете смело вставать на закачку!
 
Автор Сообщение

HUNTER

Стаж:
4 года 9 месяцев
Сообщений:
65033

Репутация: 101

[+] [-]
Вне форума [Профиль] [ЛС]

Ужасный доктор Файбс / The Abominable Dr. Phibes
-Страна: Великобритания, США
Жанр: ужасы, комедия, детектив
Год выпуска: 1971
Продолжительность: 01:34:41-Перевод 1: Профессиональный (многоголосный, закадровый)
Перевод 2: Профессиональный (двухголосый закадровый)
Cубтитры: английские
Оригинальная аудиодорожка: английский-Режиссер: Роберт Фуэст / Robert Fuest-В ролях: Винсент Прайс, Джозеф Коттон, Вирджиния Норт, Терри-Томас, Шон Бари, Сьюзан Траверс-Описание:
После того, как бригада хирургов неудачно прооперировала его жену, оставив ее умирать, доктор Файбс решил: «Девятеро убили ее, девятеро должны умереть!» Одно за другим Файбс придумывает искусные убийства, основанные на ветхозаветных десяти казнях египетских. Это и нашествие саранчи и атака яростных крыс и летучие мыши — вампиры.-Сэмпл: Скачать-Тип релиза: BDRip 720p (SbR)
Контейнер: MKV-Видео: 1280x696 (1.85:1); 10632 Kbps; 23.976 fps;
Аудио 1: Russian; AC3; 48.0 KHz; 2ch; 192 Kbps MVO
Аудио 2: Russian; AC3; 48.0 KHz; 2ch; 192 Kbps DVO
Аудио 3: English; FLAC2; 48.0 KHz; 2ch; 1096 Kbps
Аудио 4: English; AAC; 48.0 KHz; 2ch; 60 Kbps Commentary with Роберт Fuest
Аудио 5: English; AAC; 48.0 KHz; 2ch; 60 Kbps Commentary with Justin Humphreys
Формат субтитров: softsub (SRT)

MediaInfo

Format : Matroska
Format version : Version 4 / Version 2
File size : 8.10 GiB
Duration : 1h 34mn
Overall bit rate mode : Variable
Overall bit rate : 12.2 Mbps
Encoded date : UTC 2014-02-03 07:08:26
Writing application : mkvmerge v6.6.0 ('The Edge Of The In Between') built on Dec 1 2013 17:55:00
Writing library : libebml v1.3.0 + libmatroska v1.4.1
Video
ID : 1
Format : AVC
Format/Info : Advanced Video Codec
Format profile : High@L4.1
Format settings, CABAC : Yes
Format settings, ReFrames : 9 frames
Codec ID : V_MPEG4/ISO/AVC
Duration : 1h 34mn
Width : 1 280 pixels
Height : 696 pixels
Display aspect ratio : 1.85:1
Frame rate mode : Constant
Frame rate : 23.976 fps
Color space : YUV
Chroma subsampling : 4:2:0
Bit depth : 8 bits
Scan type : Progressive
Writing library : x264 core 140 r2377kMod 1ca7bb9
Encoding settings : cabac=1 / ref=9 / deblock=1:-3:-3 / analyse=0x3:0x133 / me=tesa / subme=10 / psy=1 / fade_compensate=0.00 / psy_rd=1.00:0.00 / mixed_ref=1 / me_range=24 / chroma_me=1 / trellis=2 / 8x8dct=1 / cqm=0 / deadzone=21,11 / fast_pskip=0 / chroma_qp_offset=-2 / threads=6 / lookahead_threads=1 / sliced_threads=0 / nr=0 / decimate=1 / interlaced=0 / bluray_compat=0 / constrained_intra=0 / fgo=0 / bframes=12 / b_pyramid=2 / b_adapt=2 / b_bias=0 / direct=3 / weightb=1 / open_gop=0 / weightp=2 / keyint=250 / keyint_min=23 / scenecut=40 / intra_refresh=0 / rc=crf / mbtree=0 / crf=16.0000 / qcomp=0.70 / qpmin=0 / qpmax=69 / qpstep=4 / ip_ratio=1.40 / pb_ratio=1.30 / aq=1:0.80
Language : English
Default : Yes
Forced : No
Audio #1
ID : 2
Format : AC-3
Format/Info : Audio Coding 3
Mode extension : CM (complete main)
Format settings, Endianness : Big
Codec ID : A_AC3
Duration : 1h 34mn
Bit rate mode : Constant
Bit rate : 192 Kbps
Channel count : 2 channels
Channel positions : Front: L R
Sampling rate : 48.0 KHz
Bit depth : 16 bits
Compression mode : Lossy
Stream size : 130 MiB (2%)
Title : MVO
Language : Russian
Default : Yes
Forced : No
Audio #2
ID : 3
Format : AC-3
Format/Info : Audio Coding 3
Mode extension : CM (complete main)
Format settings, Endianness : Big
Codec ID : A_AC3
Duration : 1h 34mn
Bit rate mode : Constant
Bit rate : 192 Kbps
Channel count : 2 channels
Channel positions : Front: L R
Sampling rate : 48.0 KHz
Bit depth : 16 bits
Compression mode : Lossy
Stream size : 130 MiB (2%)
Title : DVO
Language : Russian
Default : No
Forced : No
Audio #3
ID : 4
Format : FLAC
Format/Info : Free Lossless Audio Codec
Codec ID : A_FLAC
Duration : 1h 34mn
Bit rate mode : Variable
Channel count : 2 channels
Sampling rate : 48.0 KHz
Bit depth : 24 bits
Title : English FLAC @ 1096 Kbps
Writing library : libFLAC 1.2.1 (UTC 2007-09-17)
Language : English
Default : No
Forced : No
Audio #4
ID : 5
Format : AAC
Format/Info : Advanced Audio Codec
Format profile : LC
Codec ID : A_AAC
Duration : 1h 34mn
Channel count : 2 channels
Channel positions : Front: L R
Sampling rate : 48.0 KHz
Compression mode : Lossy
Delay relative to video : 9ms
Title : Commentary with Роберт Fuest
Language : English
Default : No
Forced : No
Audio #5
ID : 6
Format : AAC
Format/Info : Advanced Audio Codec
Format profile : LC
Codec ID : A_AAC
Duration : 1h 34mn
Channel count : 2 channels
Channel positions : Front: L R
Sampling rate : 48.0 KHz
Compression mode : Lossy
Delay relative to video : 9ms
Title : Commentary with Justin Humphreys
Language : English
Default : No
Forced : No
Text #1
ID : 7
Format : UTF-8
Codec ID : S_TEXT/UTF8
Codec ID/Info : UTF-8 Plain Text
Language : English
Default : No
Forced : No
Text #2
ID : 8
Format : UTF-8
Codec ID : S_TEXT/UTF8
Codec ID/Info : UTF-8 Plain Text
Language : French
Default : No
Forced : No
Text #3
ID : 9
Format : UTF-8
Codec ID : S_TEXT/UTF8
Codec ID/Info : UTF-8 Plain Text
Language : Spanish
Default : No
Forced : No
Text #4
ID : 10
Format : UTF-8
Codec ID : S_TEXT/UTF8
Codec ID/Info : UTF-8 Plain Text
Language : Italian
Default : No
Forced : No
Text #5
ID : 11
Format : UTF-8
Codec ID : S_TEXT/UTF8
Codec ID/Info : UTF-8 Plain Text
Title : Brazilian
Language : Portuguese
Default : No
Forced : No
Menu
00:00:00.000 : en:00:00:00.000
00:05:55.355 : en:00:05:55.355
00:12:16.361 : en:00:12:16.361
00:21:18.903 : en:00:21:18.903
00:29:47.786 : en:00:29:47.786
00:35:58.782 : en:00:35:58.782
00:41:42.125 : en:00:41:42.125
00:50:01.624 : en:00:50:01.624
00:57:37.454 : en:00:57:37.454
01:05:46.568 : en:01:05:46.568
01:14:05.066 : en:01:14:05.066
01:23:53.654 : en:01:23:53.654

Скриншоты


_________________
Показать сообщения:    

Текущее время: Сегодня 09:36

Часовой пояс: GMT



Вы не можете начинать темы
Вы не можете отвечать на сообщения
Вы не можете редактировать свои сообщения
Вы не можете удалять свои сообщения
Вы не можете голосовать в опросах
Вы не можете прикреплять файлы к сообщениям
Вы не можете скачивать файлы