Важное объявление!
У Нас Все раздачи мультитрекерные, при нуле пиров в релизах, можете смело вставать на закачку!
 
Автор Сообщение

HUNTER

Стаж:
4 года 5 месяцев
Сообщений:
60886

Репутация: 101

[+] [-]
Вне форума [Профиль] [ЛС]

Удаленная местность / Edge of Winter
Страна: США / КАНАДА
Жанр: Триллер, Драма
Год выпуска: 2016
Продолжительность: 01:28:45
Перевод: Любительский (многоголосый закадровый) RATTLEBOX
Cубтитры: Оригинальные английские
Оригинальная аудиодорожка: английский
Режиссер: Роберт Коннолли / Rob Connolly
В ролях: Том Холланд, Юэль Киннаман, Рашель Лефевр, Шайло Фернандес, Россиф Сазерленд, Патрик Гэрроу, Шон Бенсон, Перси Хайнс Уайт
Перевод: Helga Okami, Мария Кушнирук
Редактор: Никита Милетский
Роли озвучивали: Владимир Голицин, Константин Болоцкий, Анастасия Садовская, Артем Маликов, Алексей Шевченко, Наталия Колодяжная
Звукорежиссер/Арт/Релиз: Евгений Арзамасцев
Описание: Напряженная драма об одиноком мужчине, которому выпадает возможность сблизиться с двумя сыновьями, когда бывшая жена, уезжая в отпуск, оставляет их под его присмотром. Но вместо семейной идиллии братьев ждет кошмарная ночь в заброшенной хижине, сотрясаемой ударами снежной бури. Подростки многое откроют о своем малознакомом отце и о том, что они значат для него на самом деле.
Сэмпл: https://www.sendspace.com/file/0j8a29
Качество видео: WEB-DL
Формат видео: MKV
Видео: AVC, 1916х806, 23.976 fps , 4327 Kbps
Аудио 1: Russian: AC3, 48kHz, 2ch, 192 Kbps
Аудио 2: English: AC3, 48kHz, 6ch, 384 Kbps

MediaInfo

General
Unique ID : 322901775725721457791618339283622294131 (0xF2EC9EB18B1EA3496B7A95DB4195F273)
Complete name : /Volumes/STORAGE/TORRENTs/TORRENTS/Edge of Winter:Удаленная местность (RATTLEBOX) MKV/Edge of Winter:Удаленная местность (RATTLEBOX STUDIO) 2016.mkv
Format : Matroska
Format version : Version 4 / Version 2
File size : 3.10 GiB
Duration : 1h 28mn
Overall bit rate : 5 003 Kbps
Movie name : Edge.of.Winter.2016.1080p.WEB-DL.DD5.1.H264-FGT
Encoded date : UTC 2016-08-29 22:16:51
Writing application : mkvmerge v9.3.1 ('Mask Machine') 64bit
Writing library : libebml v1.3.4 + libmatroska v1.4.5
Cover : Yes
Attachments : small_cover.jpg / small_cover_land.jpg / cover.jpg / cover_land.jpg
Video
ID : 1
Format : AVC
Format/Info : Advanced Video Codec
Format profile : High@L4
Format settings, CABAC : Yes
Format settings, ReFrames : 5 frames
Codec ID : V_MPEG4/ISO/AVC
Duration : 1h 28mn
Bit rate : 4 426 Kbps
Width : 1 916 pixels
Height : 806 pixels
Display aspect ratio : 2.40:1
Frame rate mode : Constant
Frame rate : 23.976 (23976/1000) fps
Color space : YUV
Chroma subsampling : 4:2:0
Bit depth : 8 bits
Scan type : Progressive
Bits/(Pixel*Frame) : 0.120
Stream size : 2.74 GiB (88%)
Title : Edge.of.Winter.2016.1080p.WEB-DL.DD5.1.H264-FGT
Language : English
Default : Yes
Forced : No
Color range : Limited
Color primaries : BT.709
Transfer characteristics : BT.709
Matrix coefficients : BT.709
Audio #1
ID : 2
Format : AC-3
Format/Info : Audio Coding 3
Mode extension : CM (complete main)
Format settings, Endianness : Big
Codec ID : A_AC3
Duration : 1h 28mn
Bit rate mode : Constant
Bit rate : 192 Kbps
Channel(s) : 2 channels
Channel positions : Front: L R
Sampling rate : 48.0 KHz
Frame rate : 31.250 fps (1536 spf)
Compression mode : Lossy
Stream size : 122 MiB (4%)
Title : RATTLEBOX
Language : Russian
Default : Yes
Forced : No
Audio #2
ID : 3
Format : AC-3
Format/Info : Audio Coding 3
Mode extension : CM (complete main)
Format settings, Endianness : Big
Codec ID : A_AC3
Duration : 1h 28mn
Bit rate mode : Constant
Bit rate : 384 Kbps
Channel(s) : 6 channels
Channel positions : Front: L C R, Side: L R, LFE
Sampling rate : 48.0 KHz
Frame rate : 31.250 fps (1536 spf)
Compression mode : Lossy
Stream size : 244 MiB (8%)
Title : Edge.of.Winter.2016.1080p.WEB-DL.DD5.1.H264-FGT
Language : English
Default : No
Forced : No
Text
ID : 4
Format : UTF-8
Codec ID : S_TEXT/UTF8
Codec ID/Info : UTF-8 Plain Text
Duration : 1h 22mn
Bit rate : 39 bps
Count of elements : 852
Stream size : 23.8 KiB (0%)
Language : English
Default : Yes
Forced : No
Menu
00:00:00.000 : en:1
00:03:58.905 : en:2
00:07:40.751 : en:3
00:14:11.600 : en:4
00:21:30.288 : en:5
00:24:51.364 : en:6
00:32:48.799 : en:7
00:36:42.073 : en:8
00:40:55.076 : en:9
00:44:47.475 : en:10
00:50:53.883 : en:11
00:57:24.815 : en:12
01:03:27.928 : en:13
01:10:00.570 : en:14
01:15:48.251 : en:15
01:21:28.674 : en:16

Скриншот c названием фильма

Скриншоты




_________________
Показать сообщения:    

Текущее время: Сегодня 16:02

Часовой пояс: GMT



Вы не можете начинать темы
Вы не можете отвечать на сообщения
Вы не можете редактировать свои сообщения
Вы не можете удалять свои сообщения
Вы не можете голосовать в опросах
Вы не можете прикреплять файлы к сообщениям
Вы не можете скачивать файлы
Наши партнеры: интернет магазин Ивановского трикотажа textilla.ru