Убить по расписанию / Ticking Clock (Эрни Барбараш / Ernie Barbarash) [2011, Боевик, триллер, криминал, детектив, BDRip-AVC] MVO + Sub Rus :: Ивановский Торрент трекер
Важное объявление!
У Нас Все раздачи мультитрекерные, при нуле пиров в релизах, можете смело вставать на закачку!
 
Автор Сообщение

димитри37

Стаж:
4 года 3 месяца
Сообщений:
1236

Репутация: 127

[+] [-]
Вне форума [Профиль] [ЛС]

Убить по расписаниюTicking Clock
Страна: США
Жанр: Боевик, триллер, криминал, детектив
Год выпуска: 2011
Продолжительность: 01:40:57
Перевод:(многоголосый закадровый)
Cубтитры: русские,английские
Оригинальная аудиодорожка: нет
Режиссер: Эрни Барбараш / Ernie Barbarash
В ролях: Кьюба Гудинг мл., Нил МакДонаф, Остин Абрамс, Янси Ариас, Даниэль Николет, Вероника Берри, Дэйн Родс, Анжелина Сордз, Моника Акоста, Ники Эйкокс
Описание: Репортер натыкается на журнал убийцы, переполненного планами убить определенных людей, и занимается расследованиями самостоятельно, и вдруг находит, что каждый след приводит к 11-летнему мальчику из сиротского приюта…
Доп. информация:
:
Качество видео: BDRip-AVC |Убить по расписанию / Ticking Clock (2011) 720p BD-Remux|
Формат видео: MKV
Видео: 1024 x 576 (16:9) at 23.976 fps AVC at 2561 Кбит/сек
Аудио: 48,0 КГц AC-3 at 384 Кбит/сек (русский) 6 канала(ов)
Формат субтитров: softsub (SRT)
Доп. информация о субтитрах: отключаемые

MediaInfo

Уникальный идентификатор : 199061616498204469675561007040773721271 (0x95C1DF6FC4BCA72EA562C675399B8CB7)
Полное имя : C:\Фильмы\Убить по расписанию\Ubit.po.raspisaniyu.2011.P.Rus.x264.BDRip..mkv
Формат : Matroska
Версия формата : Version 1
Размер файла : 2,12 Гбайт
Продолжительность : 1 ч. 40 м.
Общий поток : 3005 Кбит/сек
Название фильма : Убить по расписанию / Ticking Clock (2011) BDRip-AVC
Дата кодирования : UTC 2011-01-22 20:22:50
Программа кодирования : mkvmerge v2.3.0 ('Freak U') built on Sep 8 2008 18:32:16
Библиотека кодирования : libebml v0.7.7 + libmatroska v0.8.1
Идентификатор : 1
Формат : AVC
Формат/Информация : Advanced Video Codec
Профиль формата : High@L3.1
Параметр CABAC формата : Да
Параметр ReFrames формата : 4 кадра
Идентификатор кодека : V_MPEG4/ISO/AVC
Продолжительность : 1 ч. 40 м.
Битрейт : 2561 Кбит/сек
Ширина : 1024 пикселя
Высота : 576 пикселей
Соотношение сторон : 16:9
Режим частоты кадров : Постоянный
Частота кадров : 23,976 кадра/сек
Цветовое пространство : YUV
Субдискретизация насыщенности : 4:2:0
Битовая глубина : 8 бит
Тип развёртки : Прогрессивная
Бит/(Пиксели*Кадры) : 0.181
Размер потока : 1,81 Гбайт (85%)
Заголовок : Ticking Clock
Язык : English
Default : Да
Forced : Нет
Идентификатор : 2
Формат : AC-3
Формат/Информация : Audio Coding 3
Расширение режима : CM (complete main)
Параметр Endianness формата : Big
Идентификатор кодека : A_AC3
Продолжительность : 1 ч. 40 м.
Вид битрейта : Постоянный
Битрейт : 384 Кбит/сек
Каналы : 6 каналов
Расположение каналов : Front: L C R, Side: L R, LFE
Частота : 48,0 КГц
Битовая глубина : 16 бит
Метод сжатия : С потерями
Задержка видео : 5 мс.
Размер потока : 277 Мбайт (13%)
Заголовок : Ticking Clock
Язык : Russian
Default : Да
Forced : Нет
Идентификатор : 3
Формат : UTF-8
Идентификатор кодека : S_TEXT/UTF8
Идентификатор кодека/Информация : UTF-8 Plain Text
Заголовок : Ticking Clock
Язык : English
Default : Да
Forced : Нет
Идентификатор : 4
Формат : UTF-8
Идентификатор кодека : S_TEXT/UTF8
Идентификатор кодека/Информация : UTF-8 Plain Text
Заголовок : Ticking Clock
Язык : Russian
Default : Нет
Forced : Нет
Идентификатор : 5
Формат : UTF-8
Идентификатор кодека : S_TEXT/UTF8
Идентификатор кодека/Информация : UTF-8 Plain Text
Заголовок : Ticking Clock
Язык : English
Default : Нет
Forced : Нет

Скриншот c названием фильма

Скриншоты

-Источник:
Показать сообщения:    

Текущее время: Сегодня 10:19

Часовой пояс: GMT



Вы не можете начинать темы
Вы не можете отвечать на сообщения
Вы не можете редактировать свои сообщения
Вы не можете удалять свои сообщения
Вы не можете голосовать в опросах
Вы не можете прикреплять файлы к сообщениям
Вы не можете скачивать файлы