Важное объявление!
У Нас Все раздачи мультитрекерные, при нуле пиров в релизах, можете смело вставать на закачку!
Статистика раздачи
Размер:     |    Зарегистрирован:     |    Скачан:     |   
Нет
 
     
 
 
Автор Сообщение

димитри37

Стаж:
4 года 5 месяцев
Сообщений:
1236

Репутация: 127

[+] [-]
Вне форума [Профиль] [ЛС]

Убить Дрозда
Год выпуска: 2013
Жанр: Фантастическая комедия
Выпущено: Россия, Централ Партнершип
Продолжительность: ~0:52:00
Субтитры: нет
Режиссер: Дмитрий Герасимов
В ролях: Даниил Спиваковский, Анна Снаткина, Вадим Колганов, Александр Рапопорт, Ефим Банчик, Владимир Кошевой, Юрий Воробьев, Марина Куделинская, Александр Терешко, Владимир Щербаков, Олег Морозов, Михаил Дорожкин, Наталья Унгард, Наталья Тетенова, Вадим Андреев, Василий Савинов, Евгений Воскресенский, Виктор Логинов, Сергей Лобынцев, Александр Пальчиков
Описание: Тихий, занудливый и недотепистый агент по недвижимости Ярик Дрозд даже не подозревал, что заурядная командировка, в которую его отправил шеф для покупки здания местного планетария, обернется для него сущим кошмаром. Ведь в тот же город в то же самое время для участия в том же аукционе отправился еще один Дрозд – спецагент силового ведомства – красивая, жестокая, решительная женщина по имени Жанна. Ведь по самым свежим данным в фундаменте планетария спрятано – ни много, ни мало – золото Колчака, таинственно исчезнувшее в начале прошлого века. Дроздов, разумеется, перепутали. Ярик угодил в стальные объятия силовиков, а Жанну гостеприимно встретил риэлтор. Но на этом злоключения героев не заканчиваются. Им обоим предстоит сделать «шаг во времени» и попасть в 1919 год – в самый разгар гражданской войны. Жанне очень пригодится ее умение драться и метко стрелять, а Ярику сам Бог велел блеснуть эрудицией.
Качество: SATRip
Формат: AVI
Видео кодек: XviD
Аудио кодек: MP3
Видео: 720x400 (1.80:1), 25 fps, XviD build 50 ~1432 kbps avg, 0.20 bit/pixel
Аудио: 48 kHz, MPEG Layer 3, 2 ch, ~192.00 kbps avg

MI

General
Complete name : V:\ftp4\Videos\Ubit.Drozda.2013.SATRip.Files-x\Ubit.Drozda.01.seriya.2013.SATRip.Files-x.avi
Format : AVI
Format/Info : Audio Video Interleave
File size : 602 MiB
Duration : 51mn 30s
Overall bit rate : 1 635 Kbps
Writing application : VirtualDubMod 1.5.10.3 | www.virtualdub-fr.org || (build 2550/release)
Writing library : VirtualDubMod build 2550/release
Video
ID : 0
Format : MPEG-4 Visual
Format profile : Advanced Simple@L5
Format settings, BVOP : 1
Format settings, QPel : No
Format settings, GMC : No warppoints
Format settings, Matrix : Default (H.263)
Codec ID : XVID
Codec ID/Hint : XviD
Duration : 51mn 30s
Bit rate : 1 433 Kbps
Width : 720 pixels
Height : 400 pixels
Display aspect ratio : 16:9
Frame rate : 25.000 fps
Color space : YUV
Chroma subsampling : 4:2:0
Bit depth : 8 bits
Scan type : Progressive
Compression mode : Lossy
Bits/(Pixel*Frame) : 0.199
Stream size : 528 MiB (88%)
Writing library : XviD 1.2.1 (UTC 2008-12-04)
Audio
ID : 1
Format : MPEG Audio
Format version : Version 1
Format profile : Layer 3
Codec ID : 55
Codec ID/Hint : MP3
Duration : 51mn 30s
Bit rate mode : Constant
Bit rate : 192 Kbps
Channel(s) : 2 channels
Sampling rate : 48.0 KHz
Compression mode : Lossy
Stream size : 70.7 MiB (12%)
Alignment : Aligned on interleaves
Interleave, duration : 40 ms (1.00 video frame)
Interleave, preload duration : 504 ms
Writing library : LAME3.98r
Encoding settings : -m s -V 4 -q 2 -lowpass 18.6 -b 192

Скриншоты

Внимание! Раздача ведётся путём добавления новых серий!

Внимание! Раздача ведётся путём добавления новых серий
Внимание! Раздача ведётся путём добавления новых серий; при каждом добавлении создётся новый торрент.
Чтобы начать докачку новой серии, пользователям необходимо сделать следующее:
1) остановить скачивание
2) удалить старый торрент у себя из клиента (старые серии удалять не надо)
3) скачать новый торрент и запустить его у себя в клиенте вместо старого, при этом указать клиенту путь в старую папку куда и должно происходить скачивание новых серий.
Ваш клиент при этом должен произвести хеширование (проверку) старой папки (если не производит сам - помогите ему сделать это), и будет докачивать только те серии которых у вас ещё нет. Старые серии при этом не удаляются, а продолжают раздаваться!
Eсли вы уже удалили старые серии, то предотвратить повторную закачку старых серий можно, отжав галочку в соответствовавших местах при запуске нового торрента.
Реклама отсутствует залит полностью приятного просмотра
Показать сообщения:    

Текущее время: Сегодня 16:33

Часовой пояс: GMT



Вы не можете начинать темы
Вы не можете отвечать на сообщения
Вы не можете редактировать свои сообщения
Вы не можете удалять свои сообщения
Вы не можете голосовать в опросах
Вы не можете прикреплять файлы к сообщениям
Вы не можете скачивать файлы