Важное объявление!
У Нас Все раздачи мультитрекерные, при нуле пиров в релизах, можете смело вставать на закачку!
 
Автор Сообщение

HUNTER

Стаж:
4 года 6 месяцев
Сообщений:
60959

Репутация: 101

[+] [-]
Вне форума [Профиль] [ЛС]

-Убить гонца / Kill the Messenger-«А ты умеешь хранить государственную тайну?»
-Страна: США
Студия: Bluegrass Films, The Combine
Жанр: триллер, драма, криминал, детектив, история
Год выпуска: 2014
Мировая премьера: 28 сентября 2014
Российская премьера: 19 февраля 2015, «Top Film Distribution»
Дата выхода DVD: 2 июня 2015, «Lizard Cinema Trade»
Продолжительность: 01:47:27
Перевод: Профессиональный (дублированный) [Лицензия]
Cубтитры: нет
Оригинальная аудиодорожка: нет-Режиссер: Майкл Куэста / Michael Cuesta-В ролях: Джереми Реннер, Мэри Элизабет Уинстэд, Розмари ДеУитт, Барри Пеппер, Рэй Лиотта, Тим Блейк Нельсон, Майкл Кеннет Уильямс, Оливер Платт, Энди Гарсиа, Майкл Шин-Описание: Репортер, собирая материал для статьи, попадает в нестандартную ситуацию: он находит секретные файлы ЦРУ, в которых четко прописано причастие госорганов к транспортировке кокаина в особо крупных размерах в Калифорнию. Несмотря на все неприятности, последующие за разоблачением, публикация выходит в одном из самых известных журналов США. Существование репортера становится нежелательным для всех, кто хоть как-то соприкасался с «кокаиновым» делом. После широкой огласки статьи убить журналиста просто так нельзя, ведь тогда правдивость материала станет очевидной, зато ведомство может обвинить репортера в другом…-Бонусы: нет- -Релиз группы: -Качество: DVD5 R5
Формат: DVD-Video
Видео кодек: MPEG2
Аудио кодек: AC3
Видео: PAL 16:9 (720x576(0.419)) MPEG Video, 25,000 кадр/сек, 4349 Кбит/сек
Аудио: Russian (Dolby AC3, 6 ch) 448 Кбит/сек, 48,0 КГц--

DVDInfo

Title: Рабочий
Size: 3.42 Gb ( 3 584 622 KBytes ) - DVD-5
Enabled regions: 1, 2, 3, 4, 5, 6, 7, 8
VTS_01 :
Play Length: 00:00:10
Video: PAL 4:3 (720x576) VBR
Audio:
Not specified (Dolby AC3, 1 ch)
VTS_02 :
Play Length: 00:00:04
Video: PAL 16:9 (720x576) VBR, Auto Pan&Scan
Audio:
Not specified (Dolby AC3, 1 ch)
VTS_03 :
Play Length: 00:00:10
Video: PAL 16:9 (720x576) VBR, Auto Pan&Scan
Audio:
English (Dolby AC3, 2 ch)
Subtitles:
English
VTS_04 :
Play Length: 01:47:27
Video: PAL 16:9 (720x576) VBR, Auto Pan&Scan
Audio:
Russian (Dolby AC3, 6 ch)
Menu Video:
PAL 4:3 (720x576) VBR
Auto Pan&Scan, Auto Letterboxed
Menu Audio:
Not specified (Dolby AC3, 1 ch)
Menu Subtitles:
Not specified
Menu Russian Language Unit :
Root Menu
Chapter (PTT) Menu
Angle menu

MediaInfo

Общее
Полное имя : F:\Новинки 2015\Ubit.gonca.2014.DVD5\VIDEO_TS\VTS_04_2.VOB
Формат : MPEG-PS
Размер файла : 1024 Мбайт
Продолжительность : 29 м.
Режим общего битрейта : Переменный
Общий поток : 4895 Кбит/сек
Видео
Идентификатор : 224 (0xE0)
Формат : MPEG Video
Версия формата : Version 2
Профиль формата : Main@Main
Параметр BVOP формата : Да
Параметр матрицы формата : Выборочная
Параметр GOP формата : Variable
Структура изображения : Frame
Продолжительность : 29 м.
Вид битрейта : Переменный
Битрейт : 4349 Кбит/сек
Максимальный битрейт : 8000 Кбит/сек
Ширина : 720 пикселей
Высота : 576 пикселей
Соотношение сторон : 16:9
Частота кадров : 25,000 кадров/сек
Стандарт вещания : PAL
Цветовое пространство : YUV
Субдискретизация насыщенности : 4:2:0
Битовая глубина : 8 бит
Тип развёртки : Чересстрочная
Порядок развёртки : Верхнее поле первое
Метод сжатия : С потерями
Бит/(Пиксели*Кадры) : 0.419
Временной код первого кадра : 00:29:44:05
Оригинал временного кода : Group of pictures header
Размер потока : 910 Мбайт (89%)
Аудио
Идентификатор : 189 (0xBD)-128 (0x80)
Формат : AC-3
Формат/Информация : Audio Coding 3
Расширение режима : CM (complete main)
Параметр Endianness формата : Big
Режим смешивания : DVD-Video
Продолжительность : 29 м.
Вид битрейта : Постоянный
Битрейт : 448 Кбит/сек
Каналы : 6 каналов
Расположение каналов : Front: L C R, Side: L R, LFE
Частота : 48,0 КГц
Метод сжатия : С потерями
Задержка видео : -760 мс.
Размер потока : 93,7 Мбайт (9%)

Скриншоты меню

Скриншоты фильма


-
-Раздача от группы:

_________________
Показать сообщения:    

Текущее время: Сегодня 19:44

Часовой пояс: GMT



Вы не можете начинать темы
Вы не можете отвечать на сообщения
Вы не можете редактировать свои сообщения
Вы не можете удалять свои сообщения
Вы не можете голосовать в опросах
Вы не можете прикреплять файлы к сообщениям
Вы не можете скачивать файлы
Наши партнеры: интернет магазин Ивановского трикотажа textilla.ru