Важное объявление!
У Нас Все раздачи мультитрекерные, при нуле пиров в релизах, можете смело вставать на закачку!
Статистика раздачи
Размер:     |    Зарегистрирован:     |    Скачан:     |   
Нет
 
     
 
 
Автор Сообщение

HUNTER

Стаж:
5 лет
Сообщений:
67920

Репутация: 101

[+] [-]
Вне форума [Профиль] [ЛС]

УбийцаSicario«The border is just another line to cross»-
Год выпуска: 2015
Страна: США
Жанр: боевик, триллер, драма, криминал, детектив

Продолжительность: 02:01:20-Перевод: Профессиональный (полное дублирование) [Чистый звук]
Субтитры: Нет
Режиссер: Дени Вильнёв / Denis Villeneuve
В ролях: Эмили Блант (Kate Macer), Бенисио Дель Торо (Alejandro), Джош Бролин (Matt Graver), Виктор Гарбер (Dave Jennings), Джон Бернтал (Ted), Дэниэл Калуя (Reggie Wayne), Джеффри Донован (Steve Forsing), Рауль Трухильо (Rafael), Хулио Седильо (Fausto Alarcon), Хэнк Роджерсон (Phil Coopers), Бернардо Галлегос (Manuel Diaz), Максимилиано Эрнандес (Silvio)-Описание: На американо-мексиканской границе женщина-полицейский сопровождает двух рейнджеров, которые преследуют наркобарона. Она не подозревает, что по ту сторону границы есть тайное место, где не действуют никакие законы и царят насилие и разврат.--Качество: BDRip-AVC
Контейнер: MKV
Видео кодек: AVC
Аудио кодек: AC3
Видео: AVC, 1040x432 (2.40:1), 1800 kbps, 23,976 fps, 0,167 bpp
Аудио №1: Русский / AC3 / 2.0 / 48 kHz / 192 kbps / 16 bit
Аудио №2: Английский / AC3 / 5.1 / 48 kHz / 640 kbps / 16 bit- -

Скриншоты

Media Info

General
Unique ID : 246764517023767787656458890147891885202 (0xB9A51E0469A843A49362388A4D25B492)
Complete name : D:\Убийца.2015.BDRip-AVC.mkv
Format : Matroska
Format version : Version 4 / Version 2
File size : 2.23 GiB
Duration : 2h 1mn
Overall bit rate : 2 633 Kbps
Encoded date : UTC 2015-12-22 15:32:14
Writing application : mkvmerge v7.8.0 ('River Man') 32bit built on Mar 27 2015 16:18:02
Writing library : libebml v1.3.1 + libmatroska v1.4.2
DURATION : 01:46:40.000000000
NUMBER_OF_FRAMES : 3
NUMBER_OF_BYTES : 312
_STATISTICS_WRITING_APP : mkvmerge v7.8.0 ('River Man') 32bit built on Mar 27 2015 16:18:02
_STATISTICS_WRITING_DATE_UTC : 2015-12-22 15:32:14
_STATISTICS_TAGS : BPS DURATION NUMBER_OF_FRAMES NUMBER_OF_BYTES
Video
ID : 1
Format : AVC
Format/Info : Advanced Video Codec
Format profile : High@L4.1
Format settings, CABAC : No
Format settings, ReFrames : 4 frames
Codec ID : V_MPEG4/ISO/AVC
Duration : 2h 1mn
Bit rate : 1 800 Kbps
Width : 1 040 pixels
Height : 432 pixels
Display aspect ratio : 2.40:1
Original display aspect ratio : 2.40:1
Frame rate mode : Variable
Frame rate : 23.976 fps
Color space : YUV
Chroma subsampling : 4:2:0
Bit depth : 8 bits
Scan type : Progressive
Bits/(Pixel*Frame) : 0.167
Stream size : 1.48 GiB (66%)
Writing library : x264 core 128 r2216M 198a7ea
Encoding settings : cabac=0 / ref=5 / deblock=0:-1:-1 / analyse=0x3:0x133 / me=umh / subme=9 / psy=1 / psy_rd=1.00:0.15 / mixed_ref=1 / me_range=32 / chroma_me=1 / trellis=0 / 8x8dct=1 / cqm=0 / deadzone=21,11 / fast_pskip=1 / chroma_qp_offset=-2 / threads=4 / lookahead_threads=1 / sliced_threads=0 / nr=0 / decimate=1 / interlaced=0 / bluray_compat=0 / constrained_intra=0 / bframes=5 / b_pyramid=1 / b_adapt=1 / b_bias=0 / direct=3 / weightb=0 / open_gop=0 / weightp=0 / keyint=230 / keyint_min=23 / scenecut=40 / intra_refresh=0 / rc_lookahead=40 / rc=2pass / mbtree=1 / bitrate=1800 / ratetol=1.0 / qcomp=0.60 / qpmin=10 / qpmax=51 / qpstep=4 / cplxblur=20.0 / qblur=0.5 / ip_ratio=1.40 / aq=1:1.00
Language : English
Default : Yes
Forced : No
DURATION : 02:01:20.160000000
NUMBER_OF_FRAMES : 174549
NUMBER_OF_BYTES : 1637057704
_STATISTICS_WRITING_APP : mkvmerge v7.8.0 ('River Man') 32bit built on Mar 27 2015 16:18:02
_STATISTICS_WRITING_DATE_UTC : 2015-12-22 15:32:14
_STATISTICS_TAGS : BPS DURATION NUMBER_OF_FRAMES NUMBER_OF_BYTES
Audio #1
ID : 2
Format : AC-3
Format/Info : Audio Coding 3
Mode extension : CM (complete main)
Codec ID : A_AC3
Duration : 2h 1mn
Bit rate mode : Constant
Bit rate : 192 Kbps
Channel(s) : 2 channels
Channel positions : Front: L R
Sampling rate : 48.0 KHz
Bit depth : 16 bits
Compression mode : Lossy
Stream size : 167 MiB (7%)
Language : Russian
Default : No
Forced : No
Audio #2
ID : 3
Format : AC-3
Format/Info : Audio Coding 3
Mode extension : CM (complete main)
Codec ID : A_AC3
Duration : 2h 1mn
Bit rate mode : Constant
Bit rate : 640 Kbps
Channel(s) : 6 channels
Channel positions : Front: L C R, Side: L R, LFE
Sampling rate : 48.0 KHz
Bit depth : 16 bits
Compression mode : Lossy
Stream size : 555 MiB (24%)
Language : English
Default : Yes
Forced : No
DURATION : 02:01:20.320000000
NUMBER_OF_FRAMES : 227510
NUMBER_OF_BYTES : 582425600
_STATISTICS_WRITING_APP : mkvmerge v7.8.0 ('River Man') 32bit built on Mar 27 2015 16:18:02
_STATISTICS_WRITING_DATE_UTC : 2015-12-22 15:32:14
_STATISTICS_TAGS : BPS DURATION NUMBER_OF_FRAMES NUMBER_OF_BYTES
Text
ID : 4
Format : UTF-8
Codec ID : S_TEXT/UTF8
Codec ID/Info : UTF-8 Plain Text
Language : Russian
Default : Yes
Forced : Yes
Menu
00:00:00.000 : en:00:00:00.000
00:07:14.351 : en:00:07:14.351
00:12:55.108 : en:00:12:55.108
00:20:04.370 : en:00:20:04.370
00:25:24.815 : en:00:25:24.815
00:32:11.596 : en:00:32:11.596
00:39:24.821 : en:00:39:24.821
00:46:15.314 : en:00:46:15.314
00:53:24.576 : en:00:53:24.576
01:01:40.322 : en:01:01:40.322
01:10:49.120 : en:01:10:49.120
01:18:02.887 : en:01:18:02.887
01:30:59.371 : en:01:30:59.371
01:36:57.770 : en:01:36:57.770
01:47:42.039 : en:01:47:42.039
01:54:12.804 : en:01:54:12.804

_________________
Показать сообщения:    

Текущее время: Сегодня 14:52

Часовой пояс: GMT



Вы не можете начинать темы
Вы не можете отвечать на сообщения
Вы не можете редактировать свои сообщения
Вы не можете удалять свои сообщения
Вы не можете голосовать в опросах
Вы не можете прикреплять файлы к сообщениям
Вы не можете скачивать файлы