Убийца Акаме / Akame ga Kill! [TV] [1 из 24] [Без хардсаба] [RUS(int)] [2014 г., Приключения, HDTVRip] [720p] :: Ивановский Торрент трекер
Важное объявление!
У Нас Все раздачи мультитрекерные, при нуле пиров в релизах, можете смело вставать на закачку!
Статистика раздачи
Размер:     |    Зарегистрирован:     |    Скачан:     |   
Нет
 
     
 
 
Автор Сообщение

HUNTER

Стаж:
4 года 11 месяцев
Сообщений:
66098

Репутация: 101

[+] [-]
Вне форума [Профиль] [ЛС]

Убийца Акаме / Akame ga Kill!
Страна: Япония
Год выпуска: 2014 г.
Жанр: Приключения
Тип: TV
Продолжительность: 24 эп, ~23 мин. серия
Режиссер: Кобаяси Томоки
Студия:
Описание: Главный герой — сельский паренёк Тацуми, который отправляется в имперскую столицу за славой и деньгами, дабы спасти задавленную налогами родную деревню от вымирания. Правда, на месте его ждёт жестокое разочарование: в армию героя не приняли, а деньги, даже те, что были, украли (ну, как украли... сам отдал, по дурости). И ночевать ему пришлось бы на улице, если б его не подобрала богатая девушка, предложив парню кров и работу. Однако уже на следующий вечер в гостеприимный дом наведывается отряд убийц, целью которых является вся семья благодетельницы Тацуми. Герой встаёт на их защиту, но тут-то и выясняется, что в столице всё не так, как кажется на первый взгляд...
Качество: HDTVRip
Тип релиза: Без хардсаба
Формат видео: MP4
Наличие линковки: Нет
Видео: x264 (8 bit), 1280x720 (16:9), ~2 135 kbps, 23.976 fps
Аудио: AAC, 255 kbps, 44.1 KHz, 2 ch Язык Русский (в составе контейнера) ; Озвучка: Многолосая Trina_D, Oriko, Cuba77 [AniDub]
Подробные тех. данные
GeneralComplete name : D:\Anime\[AniDub]_Akame_ga_Kill!_[720p]_[Cuba77_Trina_D_Oriko]\[AniDub]_Akame_ga_Kill!_[01]_[720p_x264_Aac]_[Cuba77_Trina_D_Oriko].mp4Format : MPEG-4Format profile : Base MediaCodec ID : isomFile size : 411 MiBDuration : 24mn 2sOverall bit rate : 2 393 KbpsEncoded date : UTC 2014-07-07 12:47:41Tagged date : UTC 2014-07-07 12:47:41
VideoID : 1Format : AVCFormat/Info : Advanced Video CodecFormat profile : High@L4.1Format settings, CABAC : YesFormat settings, ReFrames : 4 framesCodec ID : avc1Codec ID/Info : Advanced Video CodingDuration : 23mn 59sBit rate mode : VariableBit rate : 2 136 KbpsMaximum bit rate : 14.3 MbpsWidth : 1 280 pixelsHeight : 720 pixelsDisplay aspect ratio : 16:9Frame rate mode : ConstantFrame rate : 23.976 fpsColor space : YUVChroma subsampling : 4:2:0Bit depth : 8 bitsScan type : ProgressiveBits/(Pixel*Frame) : 0.097Stream size : 367 MiB (89%)Title : 264Writing library : x264 core 129 r2245+729M 1a52e03Encoding settings : cabac=1 / ref=4 / deblock=1:1:-1 / analyse=0x3:0x113 / me=umh / subme=9 / psy=1 / fade_compensate=0.00 / psy_rd=1.00:0.00 / mixed_ref=1 / me_range=24 / chroma_me=1 / trellis=2 / 8x8dct=1 / cqm=0 / deadzone=21,11 / fast_pskip=1 / chroma_qp_offset=-2 / threads=8 / lookahead_threads=1 / sliced_threads=0 / nr=0 / decimate=1 / interlaced=0 / bluray_compat=0 / constrained_intra=0 / fgo=0 / bframes=9 / b_pyramid=2 / b_adapt=2 / b_bias=0 / direct=1 / weightb=1 / open_gop=0 / weightp=2 / keyint=240 / keyint_min=24 / scenecut=40 / intra_refresh=0 / rc=crf / mbtree=0 / crf=18.0 / qcomp=0.72 / qpmin=0 / qpmax=69 / qpstep=4 / ip_ratio=1.40 / pb_ratio=1.30 / aq=1:0.85Encoded date : UTC 2014-07-06 20:41:35Tagged date : UTC 2014-07-07 12:47:50Color primaries : BT.709-5, BT.1361, IEC 61966-2-4, SMPTE RP177Transfer characteristics : BT.709-5, BT.1361Matrix coefficients : BT.709-5, BT.1361, IEC 61966-2-4 709, SMPTE RP177
AudioID : 2Format : AACFormat/Info : Advanced Audio CodecFormat version : Version 4Format profile : LCFormat settings, SBR : NoCodec ID : 40Duration : 24mn 2sBit rate mode : VariableBit rate : 256 KbpsMaximum bit rate : 262 KbpsChannel(s) : 2 channelsChannel positions : Front: L RSampling rate : 48.0 KHzStream size : 44.0 MiB (11%)Language : RussianEncoded date : UTC 2014-07-07 12:47:49Tagged date : UTC 2014-07-07 12:47:50
Список эпизодов
01. Уничтожение тьмы.
Отличия
http://rutracker.org/forum/viewtopic.php?t=4778103 - наличие озвучки
http://rutracker.org/forum/viewtopic.php?t=4778053 - наличие озвучки, 720р
Скриншоты

_________________
Показать сообщения:    

Текущее время: Сегодня 07:23

Часовой пояс: GMT



Вы не можете начинать темы
Вы не можете отвечать на сообщения
Вы не можете редактировать свои сообщения
Вы не можете удалять свои сообщения
Вы не можете голосовать в опросах
Вы не можете прикреплять файлы к сообщениям
Вы не можете скачивать файлы