Ивановский Торрент трекер
Яндекс.Погода
 

[Цитировать]
HUNTER

Убийство! / Murder!
Страна: Великобритания
Студия: British International Pictures (BIP)
Жанр: триллер, криминал, детектив
Год выпуска: 1930
Продолжительность: 01:42:15
Перевод 1: Профессиональный (многоголосый закадровый) — «DVD Magic»
Перевод 2: Студийный (одногоголосый закадровый) — «Фильм-экспорт» (чит. Андрей Ярославцев)
Cубтитры: английские
Оригинальная аудиодорожка: английский
Режиссер: Альфред Хичкок / Alfred Hitchcock
В ролях: Херберт Маршалл /Herbert Marshall/, Нора Бэринг /Norah Baring/, Филлис Констэм /Phyllis Konstam/, Эдвард Чэпман /Edward Chapman/, Майлз Мандер /Miles Mander/, Эсме Перси /Esme Percy/, Доналд Кэлтроп /Donald Calthrop/, Эми Брэндон Томас /Amy Brandon Thomas/, Мари Райт /Marie Wright/, Ханна Джоунс /Hannah Jones/
Описание: Нетипичный для Хичкока фильм.
Дайэна (Бэринг), молодая актриса, обвиняется в убийстве одного из своих друзей. Ее судят и приговаривают к смертной казни. Член жюри присяжных Джон Менье (Маршалл), актер-менеджер, настоящий рыцарь и джентльмен, не убежден в ее виновности и делает попытку найти настоящего убийцу.
Визуально впечатляющий фильм, отличается творческим использованием возможностей звука для усиления экспрессии. Тема невиновности человека, обвиненного в преступлении, будет продолжена и в более поздних фильмах Хичкока. Режиссер также поставил немецкую версию "Убийства" под названием "Мэри" с Альфредом Абелем в главной роли. (Иванов М.)
--------------------------------------------------------------------------------
Оператор: Джек Кокс /Jack Cox/
Сценарист: Элма Ревилл /Alma Reville/, Уолтер С. Майкрофт /Walter C. Mycroft/, Альфред Хичкок /Alfred Hitchcock/
Продюсер: Джон Максвелл /John Maxwell/
Монтажер: Эмил Де Руэль /Emile De Ruelle/, Рене Хэррисон /Rene Harrison/
Композитор: Джон Рейндерс /John Reynders/
Художник: Джон Мид /John Mead/
По произведению: Клеменс Дэйн /Clemence Dane/, Хелен Симпсон /Helen Simpson/
--------------------------------------------------
КИНОПОИСК
РЕЙТИНГ ФИЛЬМА: 6.861 оценки: 232
6,4/10 3 551 users
--------------------------------------------------
Доп. информация: Видеоряд >>> Murder 1930 720p WEB DL H264 brento [PublicHD]
Весь звук отсюда DVD9
--------------------------------------------------
СЭМПЛ
--------------------------------------------------
Тип релиза: WEB-DL 720p
Контейнер: MKV
Видео: H.264; 964x720 pixels, Bit rate 3877 Kbps, 23.976 fps, 0.233 Bits /Pixel
Аудио 1: Russian - 48 kHz, AC3 Dolby Digital, 2/0 (L,R) 2ch, ~ 224 kbps - МVO «DVD Magic»
Аудио 2: Russian - 48 kHz, AC3 Dolby Digital, 2/0 (L,R) 2ch, ~ 224 kbps - VO Ярославцев
Аудио 3: English - 48 kHz, AC3 Dolby Digital, 2/0 (L,R) 2ch, ~ 224 kbps - Original
Формат субтитров: English (*UTF-8)

MediaInfo

General
Complete name : F:\EXCLUZIVE=19\УБИЙСТВО.MURDER. 1930\MURDER 1930\Murder! 1930 720p WEB-DL.mkv
Format : Matroska
File size : 3.46 GiB
Duration : 1h 46mn
Overall bit rate : 4 641 Kbps
Encoded date : UTC 2014-07-22 00:45:02
Writing application : mkvmerge v3.3.0 ('Language') built on Mar 24 2010 14:59:24
Writing library : libebml v0.8.0 + libmatroska v0.9.0
Video
ID : 1
Format : AVC
Format/Info : Advanced Video Codec
Format profile : Main@L3.1
Format settings, CABAC : No
Format settings, ReFrames : 2 frames
Muxing mode : Container profile=Unknown@3.1
Codec ID : V_MPEG4/ISO/AVC
Duration : 1h 46mn
Bit rate : 3 877 Kbps
Width : 964 pixels
Height : 720 pixels
Display aspect ratio : 4:3
Frame rate : 23.976 fps
Color space : YUV
Chroma subsampling : 4:2:0
Bit depth : 8 bits
Scan type : Progressive
Bits/(Pixel*Frame) : 0.233
Stream size : 2.89 GiB (84%)
Title : Murder! 1930
Language : English
Color primaries : BT.709-5, BT.1361, IEC 61966-2-4, SMPTE RP177
Transfer characteristics : BT.709-5, BT.1361
Matrix coefficients : BT.709-5, BT.1361, IEC 61966-2-4 709, SMPTE RP177
Audio #1
ID : 2
Format : AC-3
Format/Info : Audio Coding 3
Mode extension : CM (complete main)
Codec ID : A_AC3
Duration : 1h 46mn
Bit rate mode : Constant
Bit rate : 224 Kbps
Channel(s) : 2 channels
Channel positions : Front: L R
Sampling rate : 48.0 KHz
Stream size : 171 MiB (5%)
Title : MVO «DVD Magic» @ AC3 2ch. @ 224 kbps
Language : Russian
Audio #2
ID : 3
Format : AC-3
Format/Info : Audio Coding 3
Mode extension : CM (complete main)
Codec ID : A_AC3
Duration : 1h 46mn
Bit rate mode : Constant
Bit rate : 224 Kbps
Channel(s) : 2 channels
Channel positions : Front: L R
Sampling rate : 48.0 KHz
Stream size : 171 MiB (5%)
Title : VO Ярославцев @ AC3 2ch. @ 224 kbps
Language : Russian
Audio #3
ID : 4
Format : AC-3
Format/Info : Audio Coding 3
Mode extension : CM (complete main)
Codec ID : A_AC3
Duration : 1h 46mn
Bit rate mode : Constant
Bit rate : 224 Kbps
Channel(s) : 2 channels
Channel positions : Front: L R
Sampling rate : 48.0 KHz
Stream size : 171 MiB (5%)
Title : Original @ AC3 2ch. @ 224 kbps
Language : English
Text
ID : 5
Format : UTF-8
Codec ID : S_TEXT/UTF8
Codec ID/Info : UTF-8 Plain Text
Title : (* UTF-8)
Language : English
Menu
00:00:00.000 : en:1
00:09:13.000 : en:2
00:17:28.000 : en:3
00:27:47.000 : en:4
00:33:57.000 : en:5
00:43:29.000 : en:6
00:53:24.000 : en:7
01:03:27.000 : en:8
01:12:32.000 : en:9
01:21:13.000 : en:10
01:32:17.000 : en:11

Скриншоты

, ,
, ,
, ,
Мои раздачи фильмов в Авторском переводе


Показать сообщения:    

Текущее время: 18-Дек 09:12

Часовой пояс: UTC ± 0


Вы не можете начинать темы
Вы не можете отвечать на сообщения
Вы не можете редактировать свои сообщения
Вы не можете удалять свои сообщения
Вы не можете голосовать в опросах
Вы не можете прикреплять файлы к сообщениям
Вы не можете скачивать файлы

!ВНИМАНИЕ!
Сайт не предоставляет электронные версии произведений, а занимается лишь коллекционированием и каталогизацией ссылок, присылаемых и публикуемых на форуме нашими читателями. Если вы являетесь правообладателем какого-либо представленного материала и не желаете, чтобы ссылка на него находилась в нашем каталоге, свяжитесь с нами, и мы незамедлительно удалим ее. Файлы для обмена на трекере предоставлены пользователями сайта, и администрация не несет ответственности за их содержание. Просьба не заливать файлы, защищенные авторскими правами, а также файлы нелегального содержания!