Ивановский Торрент трекер
Яндекс.Погода
 

[Цитировать]
HUNTER

Убийство Салазара / Killing Salazar-Год выпуска: 2016
Страна: США
Жанр: Боевик
Продолжительность: 01:39:16
Перевод: Любительский (многоголосый) [MVO]-Без рекламы!
Субтитры: Отсутствуют-В ролях: Стивен Сигал, Люк Госс, Жорж Сен-Пьер, Даррен Э. Скотт, Флорин Пьерсик мл., Мартин Аргент, Лауро Чартрэнд, Брюс Кроуфорд, Клаудиу Блеонц, Ховард Делл-Режиссёр: Киони Ваксман-Описание: Салазар, лидер европейской мафии, пытается выйти из бизнеса, имитируя свою собственную смерть. Он участвует в программе защиты свидетелей, и его охраняет отдел по борьбе с наркотиками. Но план Салазара рушится, и за его голову назначена награда, которую хотят получить его бывшие подельники.-Качество: DVDRip
Формат: AVI
Видео кодек: XviD
Аудио кодек: MP3
Видео: 720x480, 25,000 fps, 1991 Kbps
Аудио: 128 Kbps, 2 ch, 44,1 KHz-

Скриншоты



-

MediaInfo

Общее
Полное имя : D:\МОИ РАЗДАЧИ.2\видео16\Killing_Salazar_2016_DVDRip.avi
Формат : AVI
Формат/Информация : Audio Video Interleave
Профиль формата : OpenDML
Размер файла : 1,48 Гбайт
Продолжительность : 1 ч. 39 м.
Общий поток : 2133 Кбит/сек
Программа кодирования : Lavf56.15.102
Видео
Идентификатор : 0
Формат : xvid
Идентификатор кодека : xvid
Продолжительность : 1 ч. 39 м.
Битрейт : 1991 Кбит/сек
Ширина : 720 пикселей
Высота : 480 пикселей
Соотношение сторон : 3:2
Частота кадров : 25,000 кадров/сек
Тип развёртки : Прогрессивная
Бит/(Пиксели*Кадры) : 0.230
Размер потока : 1,38 Гбайт (93%)
Аудио
Идентификатор : 1
Формат : MPEG Audio
Версия формата : Version 1
Профиль формата : Layer 3
Режим : Joint stereo
Расширение режима : MS Stereo
Идентификатор кодека : 55
Идентификатор кодека/Подсказка : MP3
Продолжительность : 1 ч. 39 м.
Вид битрейта : Постоянный
Битрейт : 128 Кбит/сек
Каналы : 2 канала
Частота : 44,1 КГц
Метод сжатия : С потерями
Размер потока : 90,9 Мбайт (6%)
Выравнивание : Соединение по промежуткам
Продолжительность промежутка : 26 мс. (0,65 видеокадр)
Библиотека кодирования : LAME3.98.4
-
Показать сообщения:    

Текущее время: 19-Окт 11:52

Часовой пояс: UTC - 1


Вы не можете начинать темы
Вы не можете отвечать на сообщения
Вы не можете редактировать свои сообщения
Вы не можете удалять свои сообщения
Вы не можете голосовать в опросах
Вы не можете прикреплять файлы к сообщениям
Вы не можете скачивать файлы

!ВНИМАНИЕ!
Сайт не предоставляет электронные версии произведений, а занимается лишь коллекционированием и каталогизацией ссылок, присылаемых и публикуемых на форуме нашими читателями. Если вы являетесь правообладателем какого-либо представленного материала и не желаете, чтобы ссылка на него находилась в нашем каталоге, свяжитесь с нами, и мы незамедлительно удалим ее. Файлы для обмена на трекере предоставлены пользователями сайта, и администрация не несет ответственности за их содержание. Просьба не заливать файлы, защищенные авторскими правами, а также файлы нелегального содержания!