Ивановский Торрент трекер
Яндекс.Погода
 

[Цитировать]
HUNTER

Убийство на Формуле 1 / Преступление в «Формуле-1» / Delitto in Formula Uno
Страна: Италия
Жанр: Детектив, комедия
Год выпуска: 1984
Продолжительность: 01:28:04
Перевод: Одноголосый закадровый ССК+
Cубтитры: немецкие
Оригинальная аудиодорожка: итальянский
Режиссер: Бруно Корбуччи / Bruno Corbucci
В ролях: Томас Милиан, Пино Колицци, Дагмар Лассандер, Олимпия Ди Нардо, Пако Фабрини, Личиния Лентини, Изабель Руссинова, Энцо Гаринеи, Массимо Ванни, Мария Грация Буччелла
Описание: Эксцентричный в одежде и манерах полицейский инспектор Нико Джиральди начинает расследование странной гибели гонщика Формулы-1 прямо на трассе в Монце. Инспектор, кроме сварливого и неблагодарного начальства, имеет и остальные прелести жизни - жену, сына, шурина и далее по списку, которые делают его существование настоящей "полосой препятствий".
Доп. информация: Немецкое издание, из фильма вырезано(почему то) 9 минут и отправлено в допы.
Русская звуковая дорожка взята с этой раздачи http://rutracker.org/forum/viewtopic.php?t=4890126
За синхронизацию дорожки огромное спасибо Нордер
При пересборе двд были использованы программы:
PgcDemux - разделение компонентов диска на файлы
Muxman - мультиплексирование и авторинг DVD
VobBlanker - реавторинг DVD

Скрин завершения проекта

Бонусы: Трейлер, трейлершоу, удалённые сцкены, библеография
Сэмпл: http://sendfile.su/1063062
Тип релиза: DVD9 (Custom)
Контейнер: DVD-Video
Видео: PAL 16:9 (720x576) VBR Auto Pan&Scan
Аудио: Russian (Dolby AC3, 192 Кбит/сек, 2 ch)
Аудио 2: Deutsch (Dolby AC3, 160 Кбит/сек, 1 ch)
Аудио 3: Italiano (Dolby AC3, 384 Кбит/сек, 6 ch)
Формат субтитров: softsub (SRT)

DVDInfo

Size: 7.63 Gb ( 8 000 436 KBytes ) - DVD-9
Enabled regions: 1, 2, 3, 4, 5, 6, 7, 8
VTS_01 :
Play Length: 01:28:03+00:00:01
Video: PAL 16:9 (720x576) VBR, Auto Pan&Scan
Audio:
Russian (Dolby AC3, 2 ch)
Deutsch (Dolby AC3, 1 ch)
Italiano (Dolby AC3, 6 ch)
Subtitles:
Deutsch
VTS_02 :
Play Length: 00:00:12
Video: PAL 16:9 (720x576) VBR, Auto Pan&Scan
Audio:
Italiano (Dolby AC3, 2 ch)
VTS_03 :
Play Length: 00:01:47+00:02:05+00:00:51+00:03:45+00:03:57+00:04:06+00:03:48+00:01:24+00:03:27+00:03:02+00:03:30+00:02:08+00:03:31+00:02:55+00:05:19+00:02:07+00:02:02+00:02:13+00:03:00+00:02:32
Video: PAL 16:9 (720x576) VBR, Auto Pan&Scan
Audio:
Not specified (Dolby AC3, 2 ch)
Menu Video:
PAL 16:9 (720x576) VBR
Auto Pan&Scan
Menu Subtitles:
Not specified
Menu English Language Unit :
Root Menu
Audio Menu
Chapter (PTT) Menu

MediaInfo

Общее
Полное имя : I:\Delitto in Formula Uno_1984_DVD9\VIDEO_TS\VTS_01_1.VOB
Формат : MPEG-PS
Размер файла : 1024 Мбайт
Продолжительность : 15 м.
Режим общего битрейта : Переменный
Общий поток : 9005 Кбит/сек
Видео
Идентификатор : 224 (0xE0)
Формат : MPEG Video
Версия формата : Version 2
Профиль формата : Main@Main
Параметр BVOP формата : Да
Параметр матрицы формата : Выборочная
Параметр GOP формата : M=2, N=12
Продолжительность : 15 м.
Вид битрейта : Переменный
Битрейт : 8090 Кбит/сек
Максимальный битрейт : 9800 Кбит/сек
Ширина : 720 пикселей
Высота : 576 пикселей
Соотношение сторон : 16:9
Частота кадров : 25,000 кадров/сек
Стандарт вещания : PAL
Цветовое пространство : YUV
Субдискретизация насыщенности : 4:2:0
Битовая глубина : 8 бит
Тип развёртки : Прогрессивная
Порядок развёртки : Верхнее поле первое
Метод сжатия : С потерями
Бит/(Пиксели*Кадры) : 0.780
Размер потока : 920 Мбайт (90%)
Аудио #1
Идентификатор : 189 (0xBD)-128 (0x80)
Формат : AC-3
Формат/Информация : Audio Coding 3
Расширение режима : CM (complete main)
Параметр Endianness формата : Big
Режим смешивания : DVD-Video
Продолжительность : 15 м.
Вид битрейта : Постоянный
Битрейт : 192 Кбит/сек
Каналы : 2 канала
Расположение каналов : Front: L R
Частота : 48,0 КГц
Битовая глубина : 16 бит
Метод сжатия : С потерями
Размер потока : 21,8 Мбайт (2%)
Аудио #2
Идентификатор : 189 (0xBD)-129 (0x81)
Формат : AC-3
Формат/Информация : Audio Coding 3
Расширение режима : CM (complete main)
Параметр Endianness формата : Big
Режим смешивания : DVD-Video
Продолжительность : 15 м.
Вид битрейта : Постоянный
Битрейт : 160 Кбит/сек
Каналы : 1 канал
Расположение каналов : Front: C
Частота : 48,0 КГц
Битовая глубина : 16 бит
Метод сжатия : С потерями
Размер потока : 18,2 Мбайт (2%)
Аудио #3
Идентификатор : 189 (0xBD)-130 (0x82)
Формат : AC-3
Формат/Информация : Audio Coding 3
Расширение режима : CM (complete main)
Параметр Endianness формата : Big
Режим смешивания : DVD-Video
Продолжительность : 15 м.
Вид битрейта : Постоянный
Битрейт : 384 Кбит/сек
Каналы : 6 каналов
Расположение каналов : Front: L C R, Side: L R, LFE
Частота : 48,0 КГц
Битовая глубина : 16 бит
Метод сжатия : С потерями
Размер потока : 43,7 Мбайт (4%)
Меню

Постеры и обложки

Скриншоты меню



Показать сообщения:    

Текущее время: 13-Дек 01:50

Часовой пояс: UTC ± 0


Вы не можете начинать темы
Вы не можете отвечать на сообщения
Вы не можете редактировать свои сообщения
Вы не можете удалять свои сообщения
Вы не можете голосовать в опросах
Вы не можете прикреплять файлы к сообщениям
Вы не можете скачивать файлы

!ВНИМАНИЕ!
Сайт не предоставляет электронные версии произведений, а занимается лишь коллекционированием и каталогизацией ссылок, присылаемых и публикуемых на форуме нашими читателями. Если вы являетесь правообладателем какого-либо представленного материала и не желаете, чтобы ссылка на него находилась в нашем каталоге, свяжитесь с нами, и мы незамедлительно удалим ее. Файлы для обмена на трекере предоставлены пользователями сайта, и администрация не несет ответственности за их содержание. Просьба не заливать файлы, защищенные авторскими правами, а также файлы нелегального содержания!