Важное объявление!
У Нас Все раздачи мультитрекерные, при нуле пиров в релизах, можете смело вставать на закачку!
Статистика раздачи
Размер:     |    Зарегистрирован:     |    Скачан:     |   
Нет
 
     
 
 
Автор Сообщение

HUNTER

Стаж:
5 лет
Сообщений:
67910

Репутация: 101

[+] [-]
Вне форума [Профиль] [ЛС]

Убийство в Восточном экспрессе / Murder on the Orient Express«The Who's Who in the Whodunnit!»-
Страна: Великобритания
Год выпуска: 1974
Жанр: триллер, драма, криминал, детектив
Продолжительность: 02:07:59
Перевод 1: Профессиональный (дублированный) Студия им. Горького
Перевод 2: Профессиональный (двухголосый закадровый) НТВ
Перевод 3: Авторский (одноголосый закадровый) Ю. Сербин
Cубтитры: русские, английские-Режиссер: Сидни Люмет / Sidney Lumet
В ролях: Альберт Финни, Лорен Бэколл, Мартин Болсам, Ванесса Редгрейв, Майкл Йорк, Жаклин Биссет, Ингрид Бергман, Шон Коннери, Жан-Пьер Кассель, Джон Гилгуд, Уэнди Хиллер, Ричард Уидмарк, Энтони Перкинс, Рейчел Робертс, Колин Блейкли, Джордж Кулурис, Денис Куилли, Вернон Добчефф, Джереми Ллойд-Описание: Трансевропейский экспресс «Стамбул-Кале» попадает в снежный плен, и в то же время в одном из купе обнаружен убитый пассажир. Но детектив Эркюль Пуаро оказывается рядом и прямо на месте начинает расследование.- -Источник: BDRemux
Качество: BDRip
Формат: MKV
Видео кодек: MPEG-4 AVC
Аудио кодек: AC3, DTS
Видео: 1276x690p (1.85:1), 23.976 fps, x264, 9500 Kbps
Аудио 1: Русский 48 kHz, AC3 2.0, 192 kbps | Дублированный, Студия им. Горького
Аудио 2: Русский 48 kHz, AC3 2.0, 192 kbps | Двухголосый закадровый, НТВ
Аудио 3: Русский 48 kHz, DTS 2.0, 1536 kbps | Одноголосый закадровый, Ю. Сербин
Аудио 4: English 48 kHz, DTS 2.0, 1536 kbps | Original
Формат субтитров: softsub (SRT)-

MediaInfo

Код:
General
Unique ID                                : 233761504745551047610138040783746928962 (0xAFDCD403D49666BA8014BAF1F2689142)
Complete name                            : Murder.on.the.Orient.Express.1974.BDRip.720p.h264.AC3.DTS.Rus.Eng.mkv
Format                                   : Matroska
Format version                           : Version 4 / Version 2
File size                                : 11.5 GiB
Duration                                 : 2h 7mn
Overall bit rate                         : 12.9 Mbps
Encoded date                             : UTC 2014-08-24 11:24:59
Writing application                      : mkvmerge v6.9.1 ('Blue Panther') 64bit built on Apr 18 2014 18:23:38
Writing library                          : libebml v1.3.0 + libmatroska v1.4.1
Video
ID                                       : 1
Format                                   : AVC
Format/Info                              : Advanced Video Codec
Format profile                           : High@L4.1
Format settings, CABAC                   : Yes
Format settings, ReFrames                : 9 frames
Codec ID                                 : V_MPEG4/ISO/AVC
Duration                                 : 2h 7mn
Bit rate                                 : 9 500 Kbps
Width                                    : 1 276 pixels
Height                                   : 690 pixels
Display aspect ratio                     : 1.85:1
Frame rate mode                          : Constant
Frame rate                               : 23.976 fps
Color space                              : YUV
Chroma subsampling                       : 4:2:0
Bit depth                                : 8 bits
Scan type                                : Progressive
Bits/(Pixel*Frame)                       : 0.450
Stream size                              : 8.27 GiB (72%)
Writing library                          : x264 core 142 r2431 ac76440
Encoding settings                        : cabac=1 / ref=9 / deblock=1:-3:-3 / analyse=0x3:0x133 / me=umh / subme=11 / psy=1 / psy_rd=1.00:0.00 / mixed_ref=1 / me_range=48 / chroma_me=1 / trellis=2 / 8x8dct=1 / cqm=0 / deadzone=21,11 / fast_pskip=0 / chroma_qp_offset=-2 / threads=12 / lookahead_threads=3 / sliced_threads=0 / nr=0 / decimate=0 / interlaced=0 / bluray_compat=0 / constrained_intra=0 / bframes=10 / b_pyramid=2 / b_adapt=2 / b_bias=0 / direct=3 / weightb=1 / open_gop=0 / weightp=2 / keyint=240 / keyint_min=23 / scenecut=40 / intra_refresh=0 / rc_lookahead=240 / rc=2pass / mbtree=0 / bitrate=9500 / ratetol=1.0 / qcomp=0.60 / qpmin=10 / qpmax=51 / qpstep=4 / cplxblur=20.0 / qblur=0.5 / vbv_maxrate=50000 / vbv_bufsize=62500 / nal_hrd=none / filler=0 / ip_ratio=1.40 / pb_ratio=1.30 / aq=1:1.00
Language                                 : English
Default                                  : Yes
Forced                                   : No
Audio #1
ID                                       : 2
Format                                   : AC-3
Format/Info                              : Audio Coding 3
Mode extension                           : CM (complete main)
Format settings, Endianness              : Big
Codec ID                                 : A_AC3
Duration                                 : 2h 7mn
Bit rate mode                            : Constant
Bit rate                                 : 192 Kbps
Channel(s)                               : 2 channels
Channel positions                        : Front: L R
Sampling rate                            : 48.0 KHz
Bit depth                                : 16 bits
Compression mode                         : Lossy
Stream size                              : 176 MiB (1%)
Title                                    : Дубляж (Cтудия им. Горького)
Language                                 : Russian
Default                                  : Yes
Forced                                   : No
Audio #2
ID                                       : 3
Format                                   : AC-3
Format/Info                              : Audio Coding 3
Mode extension                           : CM (complete main)
Format settings, Endianness              : Big
Codec ID                                 : A_AC3
Duration                                 : 2h 7mn
Bit rate mode                            : Constant
Bit rate                                 : 192 Kbps
Channel(s)                               : 2 channels
Channel positions                        : Front: L R
Sampling rate                            : 48.0 KHz
Bit depth                                : 16 bits
Compression mode                         : Lossy
Stream size                              : 176 MiB (1%)
Title                                    : Двухголосый закадровый (НТВ)
Language                                 : Russian
Default                                  : No
Forced                                   : No
Audio #3
ID                                       : 4
Format                                   : DTS
Format/Info                              : Digital Theater Systems
Mode                                     : 16
Format settings, Endianness              : Big
Codec ID                                 : A_DTS
Duration                                 : 2h 7mn
Bit rate mode                            : Constant
Bit rate                                 : 1 509 Kbps
Channel(s)                               : 2 channels
Channel positions                        : Front: L R
Sampling rate                            : 48.0 KHz
Bit depth                                : 24 bits
Compression mode                         : Lossy
Stream size                              : 1.35 GiB (12%)
Title                                    : Одноголосый закадровый (Ю. Сербин)
Language                                 : Russian
Default                                  : No
Forced                                   : No
Audio #4
ID                                       : 5
Format                                   : DTS
Format/Info                              : Digital Theater Systems
Mode                                     : 16
Format settings, Endianness              : Big
Codec ID                                 : A_DTS
Duration                                 : 2h 7mn
Bit rate mode                            : Constant
Bit rate                                 : 1 509 Kbps
Channel(s)                               : 2 channels
Channel positions                        : Front: L R
Sampling rate                            : 48.0 KHz
Bit depth                                : 24 bits
Compression mode                         : Lossy
Stream size                              : 1.35 GiB (12%)
Title                                    : Original
Language                                 : English
Default                                  : No
Forced                                   : No
Text #1
ID                                       : 6
Format                                   : UTF-8
Codec ID                                 : S_TEXT/UTF8
Codec ID/Info                            : UTF-8 Plain Text
Language                                 : Russian
Default                                  : No
Forced                                   : No
Text #2
ID                                       : 7
Format                                   : UTF-8
Codec ID                                 : S_TEXT/UTF8
Codec ID/Info                            : UTF-8 Plain Text
Language                                 : English
Default                                  : No
Forced                                   : No
Menu
00:00:00.000                             : :Chapter 01
00:05:00.000                             : :Chapter 02
00:10:00.000                             : :Chapter 03
00:15:00.000                             : :Chapter 04
00:20:00.000                             : :Chapter 05
00:25:00.000                             : :Chapter 06
00:30:00.000                             : :Chapter 07
00:35:00.000                             : :Chapter 08
00:40:00.000                             : :Chapter 09
00:45:00.000                             : :Chapter 10
00:50:00.000                             : :Chapter 11
00:55:00.000                             : :Chapter 12
01:00:00.000                             : :Chapter 13
01:05:00.000                             : :Chapter 14
01:10:00.000                             : :Chapter 15
01:15:00.000                             : :Chapter 16
01:20:00.000                             : :Chapter 17
01:25:00.000                             : :Chapter 18
01:30:00.000                             : :Chapter 19
01:35:00.000                             : :Chapter 20
01:40:00.000                             : :Chapter 21
01:45:00.000                             : :Chapter 22
01:50:00.000                             : :Chapter 23
01:55:00.000                             : :Chapter 24
02:00:00.000                             : :Chapter 25
02:05:00.000                             : :Chapter 26

Скриншоты

Сравнение с исходником

BDRemux
BDRip

_________________
Показать сообщения:    

Текущее время: Сегодня 04:38

Часовой пояс: GMT



Вы не можете начинать темы
Вы не можете отвечать на сообщения
Вы не можете редактировать свои сообщения
Вы не можете удалять свои сообщения
Вы не можете голосовать в опросах
Вы не можете прикреплять файлы к сообщениям
Вы не можете скачивать файлы