Важное объявление!
У Нас Все раздачи мультитрекерные, при нуле пиров в релизах, можете смело вставать на закачку!
 
Автор Сообщение

HUNTER

Стаж:
4 года 11 месяцев
Сообщений:
66039

Репутация: 101

[+] [-]
Вне форума [Профиль] [ЛС]

-Убийства в Черри-Фолс / Cherry Falls-Страна: США
Жанр: ужасы, триллер, детектив
Год выпуска: 2000
Продолжительность: 01:31:29-Перевод: Профессиональный (двухголосый закадровый)
Cубтитры: английские
Оригинальная аудиодорожка: английский-Режиссер: Джеффри Райт / Geoffrey Wright
В ролях: Бриттани Мерфи, Джей Мор, Майкл Бьен, Джесси Брэдфорд, Натали Рэмси, Майкл Уэстон, DJ Куаллс, Дуглас Спэйн, Гэбриел Манн, Аманда Энка-Описание: Однажды в городке Черри Фоллс происходит убийство влюбленной парочки из местной школы. Шериф Маркен начинает расследование, но почти сразу же убивают еще одну девушку. Становится ясно, что маньяк убивает только девственников. И пока полиция пытается выйти на его след, молодежь сама находит способ своего спасения.-Сэмпл: https://yadi.sk/i/Ht12IjibqYdUS-Тип релиза: BDRemux 1080p
Контейнер: MKV
Видео: MPEG-4 AVC Video 35000 kbps 1080p / 23.976 fps / 16:9 / High Profile 4.1
Аудио: Russian Dolby Digital Audio 192 kbps 2.0 / 48 kHz
Аудио 2: English DTS-HD Master Audio 5.1 / 48 kHz / 3896 kbps / 24-bit (DTS Core: 5.1 / 48 kHz / 1509 kbps / 24-bit)
Аудио 3: Ukrainian Dolby Digital Audio 192 kbps 2.0 / 48 kHz |Многоголосый закадровый, НЛО-TV|
Формат субтитров: softsub (SRT)

MI

GeneralUnique ID : 209426759550981919733906692414169907365 (0x9D8E2071DEC8DD0B8095B35701D780A5)Complete name : S:\На хранении\Убийства в Черри-Фолс (2000. Cherry Falls).mkvFormat : MatroskaFormat version : Version 2File size : 24.3 GiBDuration : 1h 31mnOverall bit rate : 38.1 MbpsMovie name : Release for RuTrackerEncoded date : UTC 2016-03-28 17:54:57Writing application : mkvmerge v4.9.1 ('Ich will') сборка от Jul 11 2011 23:53:15Writing library : libebml v1.2.1 + libmatroska v1.1.1Cover : YesAttachments : cover.jpg
VideoID : 1Format : AVCFormat/Info : Advanced Video CodecFormat profile : High@L4.1Format settings, CABAC : YesFormat settings, ReFrames : 4 framesCodec ID : V_MPEG4/ISO/AVCDuration : 1h 31mnBit rate mode : ConstantNominal bit rate : 35.0 MbpsWidth : 1 920 pixelsHeight : 1 080 pixelsDisplay aspect ratio : 16:9Frame rate mode : ConstantFrame rate : 23.976 (24000/1001) fpsColor space : YUVChroma subsampling : 4:2:0Bit depth : 8 bitsScan type : ProgressiveBits/(Pixel*Frame) : 0.704Title : CHERRY_FALLS_2000_BDREMUX_HDCLUBLanguage : EnglishDefault : YesForced : No
Audio #1ID : 2Format : AC-3Format/Info : Audio Coding 3Mode extension : CM (complete main)Format settings, Endianness : BigCodec ID : A_AC3Duration : 1h 31mnBit rate mode : ConstantBit rate : 192 KbpsChannel(s) : 2 channelsChannel positions : Front: L RSampling rate : 48.0 KHzFrame rate : 31.250 fps (1536 spf)Compression mode : LossyStream size : 126 MiB (1%)Title : DVOLanguage : RussianDefault : YesForced : No
Audio #2ID : 3Format : DTSFormat/Info : Digital Theater SystemsFormat profile : MA / CoreMode : 16Format settings, Endianness : BigCodec ID : A_DTSDuration : 1h 31mnBit rate mode : Variable / ConstantBit rate : Unknown / 1 509 KbpsChannel(s) : 6 channelsChannel positions : Front: L C R, Side: L R, LFESampling rate : 48.0 KHzFrame rate : 93.750 fps (512 spf)Bit depth : 24 bitsCompression mode : Lossless / LossyLanguage : EnglishDefault : NoForced : No
Audio #3ID : 4Format : AC-3Format/Info : Audio Coding 3Mode extension : CM (complete main)Format settings, Endianness : BigCodec ID : A_AC3Duration : 1h 31mnBit rate mode : ConstantBit rate : 192 KbpsChannel(s) : 2 channelsChannel positions : Front: L RSampling rate : 48.0 KHzFrame rate : 31.250 fps (1536 spf)Compression mode : LossyStream size : 126 MiB (1%)Title : MVO [НЛО-TV]Language : UkrainianDefault : NoForced : No
TextID : 5Format : UTF-8Codec ID : S_TEXT/UTF8Codec ID/Info : UTF-8 Plain TextLanguage : EnglishDefault : NoForced : No
Menu00:00:00.000 : en:00:00:00.00000:07:44.338 : en:00:07:44.33800:16:02.378 : en:00:16:02.37800:22:22.883 : en:00:22:22.88300:29:57.045 : en:00:29:57.04500:37:21.739 : en:00:37:21.73900:42:32.550 : en:00:42:32.55000:52:28.979 : en:00:52:28.97900:59:19.264 : en:00:59:19.26401:08:08.709 : en:01:08:08.70901:14:40.225 : en:01:14:40.22501:23:30.755 : en:01:23:30.755

Скриншоты



Зеркало


Цитата:
Цитата:

  • Релиз Spiellberg и HDClub.
  • За украинскую дорожку спасибо трекеру Hurtom.
  • Сохранены оригинальные чаптеры как на Blu-ray.

_________________
Показать сообщения:    

Текущее время: Сегодня 22:50

Часовой пояс: GMT



Вы не можете начинать темы
Вы не можете отвечать на сообщения
Вы не можете редактировать свои сообщения
Вы не можете удалять свои сообщения
Вы не можете голосовать в опросах
Вы не можете прикреплять файлы к сообщениям
Вы не можете скачивать файлы