Важное объявление!
У Нас Все раздачи мультитрекерные, при нуле пиров в релизах, можете смело вставать на закачку!
 
Автор Сообщение

HUNTER

Стаж:
4 года 11 месяцев
Сообщений:
66045

Репутация: 101

[+] [-]
Вне форума [Профиль] [ЛС]

Тёмный мир
Страна: Россия
Студия: Компания «Шаман-Пикчерс» по заказу компании «Централ Партнершип»
Жанр: мистика, триллер, фэнтези
Год выпуска: 2010
Продолжительность: 01:45:24
Перевод: Не требуется
Cубтитры: нет
Оригинальная аудиодорожка: русский
Режиссер: Антон Мегердичев
В ролях: Светлана Иванова, Иван Жидков, Елена Панова, Сергей Угрюмов, Владимир Носик, Татьяна Кузнецова, Илья Алексеев, Мария Кожевникова, Денис Юшечкин, Ксана Радченко, Елена Лабутина, Александра Валкер, Захар Хунгуреев, Евгений Атарик, Ольга Гришова, Михаил Солодко, Екатерина Хохлова, Наталья Волошина, Владимир Лукьянчиков, Олег Борисенко, Эдуард Горбенко, Сергей Рябцев (II), Герман Кугачев, Анастасия Козина, Анна Флегонтова (II), Эльмира Мирэль, Елена Митрековских, Елена Дьякова, Ольга Смирнова (III), Любовь Стручинская, Ольга Стручинская, Ирина Чупукова, Елена Хромылева, Евгения Бубновская, Мирослава Артемьева, Олеся Немец, Рикки Салонен, Анники Дитятьева, Петр Королёв (II), Евгений Макаров (III), Владимир Малюгин, Максим Плешко, Алексей Потапов, Андрей Николаев (III)
Описание: Группа студентов отправляется в фольклорную экспедицию по глухим северным деревням. В одной из них главная героиня – девушка, увлечённая мистикой и романтикой загробного мира – находит древний могильник, а в нём – магический щит. Дотронувшись до щита, она пробуждает духов прошлого, вызывает на себя их гнев, но и сама приобретает сверхчеловеческие способности. Студентам приходится вступить в долгое противостояние с силами зла.
Сэмпл: http://multi-up.com/1092318
Тип релиза: BDRip 1080p
Контейнер: MKV
Видео: AVC, 1920x1080 (16:9), 23.976 fps, 11.4 Mbps, 0.229 b/p/f
Аудио: AC3, 48000 Hz, 6 ch (5.1-side), 640 Kbps

MediaInfo

Код:
General
Unique ID                      : 40042380222643957546967836867094914964 (0x1E1FE1C4F447DE9711F999E48A202794)
Complete name                  : D:\VIDEO\rip\temnyimir\Тёмный мир.2010.BDRip.1080p.mkv
Format                         : Matroska
Format version                 : Version 4 / Version 2
File size                      : 9.03 GiB
Duration                       : 1h 45mn
Overall bit rate               : 12.3 Mbps
Writing application            : Lavf57.25.100
Writing library                : Lavf57.25.100
Video
ID                             : 1
Format                         : AVC
Format/Info                    : Advanced Video Codec
Format profile                 : High@L4
Format settings, CABAC         : Yes
Format settings, ReFrames      : 4 frames
Codec ID                       : V_MPEG4/ISO/AVC
Duration                       : 1h 45mn
Bit rate                       : 11.4 Mbps
Width                          : 1 920 pixels
Height                         : 1 080 pixels
Display aspect ratio           : 16:9
Frame rate mode                : Constant
Frame rate                     : 23.976 fps
Color space                    : YUV
Chroma subsampling             : 4:2:0
Bit depth                      : 8 bits
Scan type                      : Progressive
Bits/(Pixel*Frame)             : 0.229
Stream size                    : 8.38 GiB (93%)
Writing library                : x264 core 148 r2665 a01e339
Encoding settings              : cabac=1 / ref=4 / deblock=1:-1:-1 / analyse=0x3:0x133 / me=umh / subme=10 / psy=1 / psy_rd=1.00:0.10 / mixed_ref=1 / me_range=24 / chroma_me=1 / trellis=2 / 8x8dct=1 / cqm=0 / deadzone=21,11 / fast_pskip=1 / chroma_qp_offset=-3 / threads=6 / lookahead_threads=1 / sliced_threads=0 / nr=0 / decimate=1 / interlaced=0 / bluray_compat=0 / constrained_intra=0 / bframes=8 / b_pyramid=2 / b_adapt=2 / b_bias=0 / direct=3 / weightb=1 / open_gop=0 / weightp=2 / keyint=250 / keyint_min=23 / scenecut=40 / intra_refresh=0 / rc_lookahead=60 / rc=crf / mbtree=1 / crf=21.0 / qcomp=0.60 / qpmin=0 / qpmax=69 / qpstep=4 / ip_ratio=1.40 / aq=1:1.00
Default                        : Yes
Forced                         : No
Color range                    : Limited
Color primaries                : BT.709
Transfer characteristics       : BT.709
Matrix coefficients            : BT.709
HANDLER_NAME                   : VideoHandler
DURATION                       : 01:45:24.317000000
Audio
ID                             : 2
Format                         : AC-3
Format/Info                    : Audio Coding 3
Mode extension                 : CM (complete main)
Format settings, Endianness    : Big
Codec ID                       : A_AC3
Duration                       : 1h 45mn
Bit rate mode                  : Constant
Bit rate                       : 640 Kbps
Channel(s)                     : 6 channels
Channel positions              : Front: L C R, Side: L R, LFE
Sampling rate                  : 48.0 KHz
Bit depth                      : 16 bits
Compression mode               : Lossy
Stream size                    : 483 MiB (5%)
Language                       : Russian
Default                        : Yes
Forced                         : No
HANDLER_NAME                   : SoundHandler
DURATION                       : 01:45:24.320000000

Скриншоты


_________________
Показать сообщения:    

Текущее время: Сегодня 11:18

Часовой пояс: GMT



Вы не можете начинать темы
Вы не можете отвечать на сообщения
Вы не можете редактировать свои сообщения
Вы не можете удалять свои сообщения
Вы не можете голосовать в опросах
Вы не можете прикреплять файлы к сообщениям
Вы не можете скачивать файлы