Ивановский Торрент трекер
Яндекс.Погода
 

[Цитировать]
HUNTER

Тёмная порода / Dark Breed«The Unknown Has Revealed Itself»- Страна: США
Студия: PM Entertainment Group
Жанр: Фантастика, боевик
Год выпуска: 1996
Продолжительность: 01:40:28-Перевод 1: Авторский (одноголосый закадровый) [Петр Карцев]
Перевод 2: Профессиональный (многоголосый закадровый) [Рен-ТВ] со вставками AVO
Cубтитры: нет
Оригинальная аудиодорожка: английский-Режиссер: Ричард Пепин / Richard Pepin-В ролях: Джек Скалия, Синди Амбуэль, Джонатан Бэнкс, Грегг Браззел, Карлос Карраско, Джош Кларк, Керри Кларк, Робин Кертис, Анджело Ди Масио мл., Крис Финч-Описание: Космический шаттл терпит аварию и падает в заливе на западном побережье США. Пятеро астронавтов выбираются из воды и. .. начинают уничтожать все, что попадается у них на пути. Пришельцы, вселившиеся в тела людей и обладающие невероятной силой и разумом, пытаются разрушить мир на нашей планете. Капитан Саксон возглавляет борьбу по ликвидации чужих.-Доп. информация:
- В релизе с многоголоской Рен-ТВ отсутствует несколько эпизодов (6-7 эпизодов по 1,5-2 минуты), звук на них дополнил вариантом из AVO;
- Звуковые дорожки переключаются с пульта плеера.
Бонусы: дополнительные материалы включают трейлеры фильмов
Меню: есть, язык английский, анимированное, озвученное-Sample | IMDB | КиноПоиск-Тип релиза: DVD9 (Custom)
Контейнер: DVD-Video-Видео: NTSC 4:3 (720x480) VBR
Аудио 1: AC3, 2/0 ch, 192Kbps, Delay 0 mSec [Russian_AVO]
Аудио 2: AC3, 2/0 ch, 192Kbps, Delay 0 mSec [Russian_MVO]
Аудио 3: AC3, 2/0 ch, 192Kbps, Delay 0 mSec [Original_English]-Релиз группы: -

Используемое ПО

1. BeLight - mp3/ac3 - wav;
2. Adobe Audition - синхронизация;
3. Minnetonka Audio Software - wav - ac3;

4. PgcDemux - разборка оригинального DVD;
5. MuxMan - сборка DVD;
6. DVDReMake Pro - финальный проект.

DVDInfo

Title:
Size: 4.62 Gb ( 4 845 724 KBytes ) - DVD-9
Enabled regions: 1, 2, 3, 4, 5, 6, 7, 8
VTS_01 :
Play Length: 00:00:01+01:40:28+00:03:17+00:02:33+00:02:47+00:06:47+00:02:54+00:02:40+00:02:08+00:02:41+00:02:05+00:01:56+00:02:22+00:02:36+00:02:45+00:02:32+00:02:28+00:02:17+00:03:27+00:02:13
Video: NTSC 4:3 (720x480) VBR
Audio:
Russian (Dolby AC3, 2 ch)
Russian (Dolby AC3, 2 ch)
English (Dolby AC3, 2 ch)
Menu Video:
NTSC 4:3 (720x480) VBR
Auto Pan&Scan, Auto Letterboxed
Menu English Language Unit :
Root Menu

MediaInfo

General
Complete name : D:\Мои релизы\Dark Breed [DVD9]\VIDEO_TS\VIDEO_TS.BUP
Format : DVD Video
Format profile : Menu
File size : 8.00 KiB
Video
ID : 224 (0xE0)
Format : MPEG Video
Format version : Version 1
Bit rate mode : Variable
Width : 720 pixels
Height : 480 pixels
Display aspect ratio : 4:3
Frame rate : 29.970 fps
Standard : NTSC
Compression mode : Lossy
General
Complete name : D:\Мои релизы\Dark Breed [DVD9]\VIDEO_TS\VIDEO_TS.IFO
Format : DVD Video
Format profile : Menu
File size : 8.00 KiB
Video
ID : 224 (0xE0)
Format : MPEG Video
Format version : Version 1
Bit rate mode : Variable
Width : 720 pixels
Height : 480 pixels
Display aspect ratio : 4:3
Frame rate : 29.970 fps
Standard : NTSC
Compression mode : Lossy
General
Complete name : D:\Мои релизы\Dark Breed [DVD9]\VIDEO_TS\VTS_01_0.BUP
Format : DVD Video
Format profile : Program
File size : 126 KiB
Duration : 1h 40mn
Overall bit rate : 171 bps
Video
ID : 224 (0xE0)
Format : MPEG Video
Format version : Version 2
Duration : 1h 40mn
Bit rate mode : Variable
Width : 720 pixels
Height : 480 pixels
Display aspect ratio : 4:3
Frame rate : 29.970 fps
Standard : NTSC
Compression mode : Lossy
Audio #1
ID : 128 (0x80)
Format : AC-3
Format/Info : Audio Coding 3
Duration : 1h 40mn
Channel(s) : 2 channels
Sampling rate : 48.0 KHz
Compression mode : Lossy
Language : Russian
Audio #2
ID : 129 (0x81)
Format : AC-3
Format/Info : Audio Coding 3
Duration : 1h 40mn
Channel(s) : 2 channels
Sampling rate : 48.0 KHz
Compression mode : Lossy
Language : Russian
Audio #3
ID : 130 (0x82)
Format : AC-3
Format/Info : Audio Coding 3
Duration : 1h 40mn
Channel(s) : 2 channels
Sampling rate : 48.0 KHz
Compression mode : Lossy
Language : English
Menu #1
Duration : 1s 0ms
00:00:00.000 : Chapter 1
00:00:00.500 : Chapter 2
List (Audio) : 0
Menu #2
Duration : 1h 40mn
00:00:00.000 : Chapter 1
00:08:49.300 : Chapter 2
00:18:53.800 : Chapter 3
00:27:37.000 : Chapter 4
00:36:19.300 : Chapter 5
00:41:25.000 : Chapter 6
00:48:10.400 : Chapter 7
00:57:18.833 : Chapter 8
01:09:22.133 : Chapter 9
01:17:48.733 : Chapter 10
01:27:56.433 : Chapter 11
01:36:42.233 : Chapter 12
List (Audio) : 0 / 1 / 2
Menu #3
Duration : 3mn 17s
00:00:00.000 : Chapter 1
00:00:11.933 : Chapter 2
List (Audio) : 0
Menu #4
Duration : 2mn 33s
00:00:00.000 : Chapter 1
00:00:12.000 : Chapter 2
List (Audio) : 0
Menu #5
Duration : 2mn 47s
00:00:00.000 : Chapter 1
00:00:12.000 : Chapter 2
List (Audio) : 0
Menu #6
Duration : 6mn 47s
00:00:00.000 : Chapter 1
00:00:12.000 : Chapter 2
List (Audio) : 0
Menu #7
Duration : 2mn 54s
00:00:00.000 : Chapter 1
00:00:12.000 : Chapter 2
List (Audio) : 0
Menu #8
Duration : 2mn 40s
00:00:00.000 : Chapter 1
00:00:12.000 : Chapter 2
List (Audio) : 0
Menu #9
Duration : 2mn 8s
00:00:00.000 : Chapter 1
00:00:12.000 : Chapter 2
List (Audio) : 0
Menu #10
Duration : 2mn 41s
00:00:00.000 : Chapter 1
00:00:12.000 : Chapter 2
List (Audio) : 0
Menu #11
Duration : 2mn 8s
00:00:00.000 : Chapter 1
00:00:12.000 : Chapter 2
List (Audio) : 0
Menu #12
Duration : 2mn 5s
00:00:00.000 : Chapter 1
00:00:12.000 : Chapter 2
List (Audio) : 0
Menu #13
Duration : 1mn 56s
00:00:00.000 : Chapter 1
00:00:12.000 : Chapter 2
List (Audio) : 0
Menu #14
Duration : 2mn 22s
00:00:00.000 : Chapter 1
00:00:12.000 : Chapter 2
List (Audio) : 0
Menu #15
Duration : 2mn 33s
00:00:00.000 : Chapter 1
00:00:12.000 : Chapter 2
List (Audio) : 0
Menu #16
Duration : 2mn 36s
00:00:00.000 : Chapter 1
00:00:12.000 : Chapter 2
List (Audio) : 0
Menu #17
Duration : 2mn 45s
00:00:00.000 : Chapter 1
00:00:12.000 : Chapter 2
List (Audio) : 0
Menu #18
Duration : 2mn 32s
00:00:00.000 : Chapter 1
00:00:12.000 : Chapter 2
List (Audio) : 0
Menu #19
Duration : 2mn 28s
00:00:00.000 : Chapter 1
00:00:12.000 : Chapter 2
List (Audio) : 0
Menu #20
Duration : 2mn 17s
00:00:00.000 : Chapter 1
00:00:12.000 : Chapter 2
List (Audio) : 0
Menu #21
Duration : 3mn 27s
00:00:00.000 : Chapter 1
00:00:12.000 : Chapter 2
List (Audio) : 0
Menu #22
Duration : 2mn 13s
00:00:00.000 : Chapter 1
00:00:12.000 : Chapter 2
List (Audio) : 0
Menu #23
Duration : 3mn 17s
00:00:00.000 : Chapter 1
00:00:11.933 : Chapter 2
List (Audio) : 0
Menu #24
Duration : 2mn 33s
00:00:00.000 : Chapter 1
00:00:12.000 : Chapter 2
List (Audio) : 0
Menu #25
Duration : 2mn 47s
00:00:00.000 : Chapter 1
00:00:12.000 : Chapter 2
List (Audio) : 0
Menu #26
Duration : 6mn 47s
00:00:00.000 : Chapter 1
00:00:12.000 : Chapter 2
List (Audio) : 0
Menu #27
Duration : 2mn 54s
00:00:00.000 : Chapter 1
00:00:12.000 : Chapter 2
List (Audio) : 0
Menu #28
Duration : 2mn 40s
00:00:00.000 : Chapter 1
00:00:12.000 : Chapter 2
List (Audio) : 0
Menu #29
Duration : 2mn 8s
00:00:00.000 : Chapter 1
00:00:12.000 : Chapter 2
List (Audio) : 0
Menu #30
Duration : 2mn 41s
00:00:00.000 : Chapter 1
00:00:12.000 : Chapter 2
List (Audio) : 0
Menu #31
Duration : 2mn 8s
00:00:00.000 : Chapter 1
00:00:12.000 : Chapter 2
List (Audio) : 0
Menu #32
Duration : 2mn 5s
00:00:00.000 : Chapter 1
00:00:12.000 : Chapter 2
List (Audio) : 0
Menu #33
Duration : 1mn 56s
00:00:00.000 : Chapter 1
00:00:12.000 : Chapter 2
List (Audio) : 0
Menu #34
Duration : 2mn 22s
00:00:00.000 : Chapter 1
00:00:12.000 : Chapter 2
List (Audio) : 0
Menu #35
Duration : 2mn 33s
00:00:00.000 : Chapter 1
00:00:12.000 : Chapter 2
List (Audio) : 0
Menu #36
Duration : 2mn 36s
00:00:00.000 : Chapter 1
00:00:12.000 : Chapter 2
List (Audio) : 0
Menu #37
Duration : 2mn 45s
00:00:00.000 : Chapter 1
00:00:12.000 : Chapter 2
List (Audio) : 0
Menu #38
Duration : 2mn 32s
00:00:00.000 : Chapter 1
00:00:12.000 : Chapter 2
List (Audio) : 0
Menu #39
Duration : 2mn 28s
00:00:00.000 : Chapter 1
00:00:12.000 : Chapter 2
List (Audio) : 0
Menu #40
Duration : 2mn 17s
00:00:00.000 : Chapter 1
00:00:12.000 : Chapter 2
List (Audio) : 0
Menu #41
Duration : 3mn 27s
00:00:00.000 : Chapter 1
00:00:12.000 : Chapter 2
List (Audio) : 0
Menu #42
Duration : 2mn 13s
00:00:00.000 : Chapter 1
00:00:12.000 : Chapter 2
List (Audio) : 0
General
Complete name : D:\Мои релизы\Dark Breed [DVD9]\VIDEO_TS\VTS_01_0.IFO
Format : DVD Video
Format profile : Program
File size : 126 KiB
Duration : 1h 40mn
Overall bit rate : 171 bps
Video
ID : 224 (0xE0)
Format : MPEG Video
Format version : Version 2
Duration : 1h 40mn
Bit rate mode : Variable
Width : 720 pixels
Height : 480 pixels
Display aspect ratio : 4:3
Frame rate : 29.970 fps
Standard : NTSC
Compression mode : Lossy
Audio #1
ID : 128 (0x80)
Format : AC-3
Format/Info : Audio Coding 3
Duration : 1h 40mn
Channel(s) : 2 channels
Sampling rate : 48.0 KHz
Compression mode : Lossy
Language : Russian
Audio #2
ID : 129 (0x81)
Format : AC-3
Format/Info : Audio Coding 3
Duration : 1h 40mn
Channel(s) : 2 channels
Sampling rate : 48.0 KHz
Compression mode : Lossy
Language : Russian
Audio #3
ID : 130 (0x82)
Format : AC-3
Format/Info : Audio Coding 3
Duration : 1h 40mn
Channel(s) : 2 channels
Sampling rate : 48.0 KHz
Compression mode : Lossy
Language : English
Menu #1
Duration : 1s 0ms
00:00:00.000 : Chapter 1
00:00:00.500 : Chapter 2
List (Audio) : 0
Menu #2
Duration : 1h 40mn
00:00:00.000 : Chapter 1
00:08:49.300 : Chapter 2
00:18:53.800 : Chapter 3
00:27:37.000 : Chapter 4
00:36:19.300 : Chapter 5
00:41:25.000 : Chapter 6
00:48:10.400 : Chapter 7
00:57:18.833 : Chapter 8
01:09:22.133 : Chapter 9
01:17:48.733 : Chapter 10
01:27:56.433 : Chapter 11
01:36:42.233 : Chapter 12
List (Audio) : 0 / 1 / 2
Menu #3
Duration : 3mn 17s
00:00:00.000 : Chapter 1
00:00:11.933 : Chapter 2
List (Audio) : 0
Menu #4
Duration : 2mn 33s
00:00:00.000 : Chapter 1
00:00:12.000 : Chapter 2
List (Audio) : 0
Menu #5
Duration : 2mn 47s
00:00:00.000 : Chapter 1
00:00:12.000 : Chapter 2
List (Audio) : 0
Menu #6
Duration : 6mn 47s
00:00:00.000 : Chapter 1
00:00:12.000 : Chapter 2
List (Audio) : 0
Menu #7
Duration : 2mn 54s
00:00:00.000 : Chapter 1
00:00:12.000 : Chapter 2
List (Audio) : 0
Menu #8
Duration : 2mn 40s
00:00:00.000 : Chapter 1
00:00:12.000 : Chapter 2
List (Audio) : 0
Menu #9
Duration : 2mn 8s
00:00:00.000 : Chapter 1
00:00:12.000 : Chapter 2
List (Audio) : 0
Menu #10
Duration : 2mn 41s
00:00:00.000 : Chapter 1
00:00:12.000 : Chapter 2
List (Audio) : 0
Menu #11
Duration : 2mn 8s
00:00:00.000 : Chapter 1
00:00:12.000 : Chapter 2
List (Audio) : 0
Menu #12
Duration : 2mn 5s
00:00:00.000 : Chapter 1
00:00:12.000 : Chapter 2
List (Audio) : 0
Menu #13
Duration : 1mn 56s
00:00:00.000 : Chapter 1
00:00:12.000 : Chapter 2
List (Audio) : 0
Menu #14
Duration : 2mn 22s
00:00:00.000 : Chapter 1
00:00:12.000 : Chapter 2
List (Audio) : 0
Menu #15
Duration : 2mn 33s
00:00:00.000 : Chapter 1
00:00:12.000 : Chapter 2
List (Audio) : 0
Menu #16
Duration : 2mn 36s
00:00:00.000 : Chapter 1
00:00:12.000 : Chapter 2
List (Audio) : 0
Menu #17
Duration : 2mn 45s
00:00:00.000 : Chapter 1
00:00:12.000 : Chapter 2
List (Audio) : 0
Menu #18
Duration : 2mn 32s
00:00:00.000 : Chapter 1
00:00:12.000 : Chapter 2
List (Audio) : 0
Menu #19
Duration : 2mn 28s
00:00:00.000 : Chapter 1
00:00:12.000 : Chapter 2
List (Audio) : 0
Menu #20
Duration : 2mn 17s
00:00:00.000 : Chapter 1
00:00:12.000 : Chapter 2
List (Audio) : 0
Menu #21
Duration : 3mn 27s
00:00:00.000 : Chapter 1
00:00:12.000 : Chapter 2
List (Audio) : 0
Menu #22
Duration : 2mn 13s
00:00:00.000 : Chapter 1
00:00:12.000 : Chapter 2
List (Audio) : 0
Menu #23
Duration : 3mn 17s
00:00:00.000 : Chapter 1
00:00:11.933 : Chapter 2
List (Audio) : 0
Menu #24
Duration : 2mn 33s
00:00:00.000 : Chapter 1
00:00:12.000 : Chapter 2
List (Audio) : 0
Menu #25
Duration : 2mn 47s
00:00:00.000 : Chapter 1
00:00:12.000 : Chapter 2
List (Audio) : 0
Menu #26
Duration : 6mn 47s
00:00:00.000 : Chapter 1
00:00:12.000 : Chapter 2
List (Audio) : 0
Menu #27
Duration : 2mn 54s
00:00:00.000 : Chapter 1
00:00:12.000 : Chapter 2
List (Audio) : 0
Menu #28
Duration : 2mn 40s
00:00:00.000 : Chapter 1
00:00:12.000 : Chapter 2
List (Audio) : 0
Menu #29
Duration : 2mn 8s
00:00:00.000 : Chapter 1
00:00:12.000 : Chapter 2
List (Audio) : 0
Menu #30
Duration : 2mn 41s
00:00:00.000 : Chapter 1
00:00:12.000 : Chapter 2
List (Audio) : 0
Menu #31
Duration : 2mn 8s
00:00:00.000 : Chapter 1
00:00:12.000 : Chapter 2
List (Audio) : 0
Menu #32
Duration : 2mn 5s
00:00:00.000 : Chapter 1
00:00:12.000 : Chapter 2
List (Audio) : 0
Menu #33
Duration : 1mn 56s
00:00:00.000 : Chapter 1
00:00:12.000 : Chapter 2
List (Audio) : 0
Menu #34
Duration : 2mn 22s
00:00:00.000 : Chapter 1
00:00:12.000 : Chapter 2
List (Audio) : 0
Menu #35
Duration : 2mn 33s
00:00:00.000 : Chapter 1
00:00:12.000 : Chapter 2
List (Audio) : 0
Menu #36
Duration : 2mn 36s
00:00:00.000 : Chapter 1
00:00:12.000 : Chapter 2
List (Audio) : 0
Menu #37
Duration : 2mn 45s
00:00:00.000 : Chapter 1
00:00:12.000 : Chapter 2
List (Audio) : 0
Menu #38
Duration : 2mn 32s
00:00:00.000 : Chapter 1
00:00:12.000 : Chapter 2
List (Audio) : 0
Menu #39
Duration : 2mn 28s
00:00:00.000 : Chapter 1
00:00:12.000 : Chapter 2
List (Audio) : 0
Menu #40
Duration : 2mn 17s
00:00:00.000 : Chapter 1
00:00:12.000 : Chapter 2
List (Audio) : 0
Menu #41
Duration : 3mn 27s
00:00:00.000 : Chapter 1
00:00:12.000 : Chapter 2
List (Audio) : 0
Menu #42
Duration : 2mn 13s
00:00:00.000 : Chapter 1
00:00:12.000 : Chapter 2
List (Audio) : 0
General
Complete name : D:\Мои релизы\Dark Breed [DVD9]\VIDEO_TS\VTS_01_0.VOB
Format : MPEG-PS
File size : 102 MiB
Duration : 30s 48ms
Overall bit rate : 28.5 Mbps
Video
ID : 224 (0xE0)
Format : MPEG Video
Format version : Version 2
Format profile : Main@Main
Format settings, BVOP : Yes
Format settings, Matrix : Default
Duration : 30s 30ms
Bit rate mode : Constant
Bit rate : 27.7 Mbps
Width : 720 pixels
Height : 480 pixels
Display aspect ratio : 4:3
Frame rate : 29.970 fps
Standard : NTSC
Color space : YUV
Chroma subsampling : 4:2:0
Bit depth : 8 bits
Compression mode : Lossy
Bits/(Pixel*Frame) : 2.677
Stream size : 99.3 MiB (97%)
Audio
ID : 128 (0x80)
Format : AC-3
Format/Info : Audio Coding 3
Mode extension : CM (complete main)
Duration : 30s 48ms
Bit rate mode : Constant
Bit rate : 192 Kbps
Channel(s) : 2 channels
Channel positions : Front: L R
Sampling rate : 48.0 KHz
Bit depth : 16 bits
Compression mode : Lossy
Stream size : 704 KiB (1%)
Text
ID : 32 (0x20)
Format : RLE
Format/Info : Run-length encoding
Menu
General
Complete name : D:\Мои релизы\Dark Breed [DVD9]\VIDEO_TS\VTS_01_1.VOB
Format : MPEG-PS
File size : 1 024 MiB
Duration : 1mn 3s
Overall bit rate : 135 Mbps
Writing library : encoded by TMPGEnc (ver. 2.56.39.143)
Video
ID : 224 (0xE0)
Format : MPEG Video
Format version : Version 2
Format profile : Main@Main
Format settings, BVOP : Yes
Format settings, Matrix : Default
Duration : 1mn 3s
Bit rate mode : Variable
Bit rate : 132 Mbps
Width : 720 pixels
Height : 480 pixels
Display aspect ratio : 4:3
Frame rate : 29.970 fps
Standard : NTSC
Color space : YUV
Chroma subsampling : 4:2:0
Bit depth : 8 bits
Compression mode : Lossy
Bits/(Pixel*Frame) : 12.762
Stream size : 1 002 MiB (98%)
Writing library : TMPGEnc 2.56.39.143
Audio
ID : 128 (0x80)
Format : AC-3
Format/Info : Audio Coding 3
Mode extension : CM (complete main)
Duration : 5s 472ms
Bit rate mode : Constant
Bit rate : 192 Kbps
Channel(s) : 2 channels
Channel positions : Front: L R
Sampling rate : 48.0 KHz
Bit depth : 16 bits
Compression mode : Lossy
Stream size : 128 KiB (0%)
Menu
General
Complete name : D:\Мои релизы\Dark Breed [DVD9]\VIDEO_TS\VTS_01_2.VOB
Format : MPEG-PS
File size : 1 024 MiB
Duration : 17mn 27s
Overall bit rate : 8 204 Kbps
Video
ID : 224 (0xE0)
Format : MPEG Video
Format version : Version 2
Format profile : Main@Main
Format settings, BVOP : Yes
Format settings, Matrix : Default
Format settings, GOP : M=3, N=12
Duration : 17mn 26s
Bit rate mode : Variable
Bit rate : 7 465 Kbps
Width : 720 pixels
Height : 480 pixels
Display aspect ratio : 4:3
Frame rate : 29.970 fps
Standard : NTSC
Color space : YUV
Chroma subsampling : 4:2:0
Bit depth : 8 bits
Scan type : Interlaced
Scan order : Top Field First
Compression mode : Lossy
Bits/(Pixel*Frame) : 0.721
Stream size : 931 MiB (91%)
Audio #1
ID : 128 (0x80)
Format : AC-3
Format/Info : Audio Coding 3
Mode extension : CM (complete main)
Duration : 17mn 27s
Bit rate mode : Constant
Bit rate : 192 Kbps
Channel(s) : 2 channels
Channel positions : Front: L R
Sampling rate : 48.0 KHz
Bit depth : 16 bits
Compression mode : Lossy
Video delay : -482ms
Stream size : 24.0 MiB (2%)
Audio #2
ID : 129 (0x81)
Format : AC-3
Format/Info : Audio Coding 3
Mode extension : CM (complete main)
Duration : 5s 120ms
Bit rate mode : Constant
Bit rate : 192 Kbps
Channel(s) : 2 channels
Channel positions : Front: L R
Sampling rate : 48.0 KHz
Bit depth : 16 bits
Compression mode : Lossy
Stream size : 120 KiB (0%)
Audio #3
ID : 130 (0x82)
Format : AC-3
Format/Info : Audio Coding 3
Mode extension : CM (complete main)
Duration : 5s 120ms
Bit rate mode : Constant
Bit rate : 192 Kbps
Channel(s) : 2 channels
Channel positions : Front: L R
Sampling rate : 48.0 KHz
Bit depth : 16 bits
Compression mode : Lossy
Stream size : 120 KiB (0%)
Menu
General
Complete name : D:\Мои релизы\Dark Breed [DVD9]\VIDEO_TS\VTS_01_3.VOB
Format : MPEG-PS
File size : 1 024 MiB
Duration : 32mn 26s
Overall bit rate : 4 414 Kbps
Video
ID : 224 (0xE0)
Format : MPEG Video
Format version : Version 2
Format profile : Main@Main
Format settings, BVOP : Yes
Format settings, Matrix : Default
Format settings, GOP : M=3, N=12
Duration : 32mn 25s
Bit rate mode : Variable
Bit rate : 3 750 Kbps
Width : 720 pixels
Height : 480 pixels
Display aspect ratio : 4:3
Frame rate : 29.970 fps
Standard : NTSC
Color space : YUV
Chroma subsampling : 4:2:0
Bit depth : 8 bits
Scan type : Interlaced
Scan order : Top Field First
Compression mode : Lossy
Bits/(Pixel*Frame) : 0.362
Stream size : 870 MiB (85%)
Audio #1
ID : 128 (0x80)
Format : AC-3
Format/Info : Audio Coding 3
Mode extension : CM (complete main)
Duration : 32mn 26s
Bit rate mode : Constant
Bit rate : 192 Kbps
Channel(s) : 2 channels
Channel positions : Front: L R
Sampling rate : 48.0 KHz
Bit depth : 16 bits
Compression mode : Lossy
Video delay : -536ms
Stream size : 44.5 MiB (4%)
Audio #2
ID : 129 (0x81)
Format : AC-3
Format/Info : Audio Coding 3
Mode extension : CM (complete main)
Duration : 32mn 26s
Bit rate mode : Constant
Bit rate : 192 Kbps
Channel(s) : 2 channels
Channel positions : Front: L R
Sampling rate : 48.0 KHz
Bit depth : 16 bits
Compression mode : Lossy
Video delay : -536ms
Stream size : 44.5 MiB (4%)
Audio #3
ID : 130 (0x82)
Format : AC-3
Format/Info : Audio Coding 3
Mode extension : CM (complete main)
Duration : 32mn 26s
Bit rate mode : Constant
Bit rate : 192 Kbps
Channel(s) : 2 channels
Channel positions : Front: L R
Sampling rate : 48.0 KHz
Bit depth : 16 bits
Compression mode : Lossy
Video delay : -536ms
Stream size : 44.5 MiB (4%)
Menu
General
Complete name : D:\Мои релизы\Dark Breed [DVD9]\VIDEO_TS\VTS_01_4.VOB
Format : MPEG-PS
File size : 1 024 MiB
Duration : 32mn 35s
Overall bit rate : 4 392 Kbps
Video
ID : 224 (0xE0)
Format : MPEG Video
Format version : Version 2
Format profile : Main@Main
Format settings, BVOP : Yes
Format settings, Matrix : Default
Format settings, GOP : M=3, N=12
Duration : 32mn 35s
Bit rate mode : Variable
Bit rate : 3 729 Kbps
Width : 720 pixels
Height : 480 pixels
Display aspect ratio : 4:3
Frame rate : 29.970 fps
Standard : NTSC
Color space : YUV
Chroma subsampling : 4:2:0
Bit depth : 8 bits
Scan type : Interlaced
Scan order : Top Field First
Compression mode : Lossy
Bits/(Pixel*Frame) : 0.360
Stream size : 869 MiB (85%)
Audio #1
ID : 128 (0x80)
Format : AC-3
Format/Info : Audio Coding 3
Mode extension : CM (complete main)
Duration : 32mn 35s
Bit rate mode : Constant
Bit rate : 192 Kbps
Channel(s) : 2 channels
Channel positions : Front: L R
Sampling rate : 48.0 KHz
Bit depth : 16 bits
Compression mode : Lossy
Video delay : -508ms
Stream size : 44.8 MiB (4%)
Audio #2
ID : 129 (0x81)
Format : AC-3
Format/Info : Audio Coding 3
Mode extension : CM (complete main)
Duration : 32mn 35s
Bit rate mode : Constant
Bit rate : 192 Kbps
Channel(s) : 2 channels
Channel positions : Front: L R
Sampling rate : 48.0 KHz
Bit depth : 16 bits
Compression mode : Lossy
Video delay : -508ms
Stream size : 44.8 MiB (4%)
Audio #3
ID : 130 (0x82)
Format : AC-3
Format/Info : Audio Coding 3
Mode extension : CM (complete main)
Duration : 32mn 35s
Bit rate mode : Constant
Bit rate : 192 Kbps
Channel(s) : 2 channels
Channel positions : Front: L R
Sampling rate : 48.0 KHz
Bit depth : 16 bits
Compression mode : Lossy
Video delay : -508ms
Stream size : 44.8 MiB (4%)
Menu
General
Complete name : D:\Мои релизы\Dark Breed [DVD9]\VIDEO_TS\VTS_01_5.VOB
Format : MPEG-PS
File size : 534 MiB
Duration : 17mn 2s
Overall bit rate : 4 381 Kbps
Video
ID : 224 (0xE0)
Format : MPEG Video
Format version : Version 2
Format profile : Main@Main
Format settings, BVOP : Yes
Format settings, Matrix : Default
Format settings, GOP : M=3, N=12
Duration : 17mn 1s
Bit rate mode : Variable
Bit rate : 3 700 Kbps
Width : 720 pixels
Height : 480 pixels
Display aspect ratio : 4:3
Frame rate : 29.970 fps
Standard : NTSC
Color space : YUV
Chroma subsampling : 4:2:0
Bit depth : 8 bits
Scan type : Interlaced
Scan order : Top Field First
Compression mode : Lossy
Bits/(Pixel*Frame) : 0.357
Stream size : 453 MiB (85%)
Audio #1
ID : 128 (0x80)
Format : AC-3
Format/Info : Audio Coding 3
Mode extension : CM (complete main)
Duration : 17mn 2s
Bit rate mode : Constant
Bit rate : 192 Kbps
Channel(s) : 2 channels
Channel positions : Front: L R
Sampling rate : 48.0 KHz
Bit depth : 16 bits
Compression mode : Lossy
Video delay : -484ms
Stream size : 23.4 MiB (4%)
Audio #2
ID : 129 (0x81)
Format : AC-3
Format/Info : Audio Coding 3
Mode extension : CM (complete main)
Duration : 17mn 2s
Bit rate mode : Constant
Bit rate : 192 Kbps
Channel(s) : 2 channels
Channel positions : Front: L R
Sampling rate : 48.0 KHz
Bit depth : 16 bits
Compression mode : Lossy
Video delay : -484ms
Stream size : 23.4 MiB (4%)
Audio #3
ID : 130 (0x82)
Format : AC-3
Format/Info : Audio Coding 3
Mode extension : CM (complete main)
Duration : 17mn 2s
Bit rate mode : Constant
Bit rate : 192 Kbps
Channel(s) : 2 channels
Channel positions : Front: L R
Sampling rate : 48.0 KHz
Bit depth : 16 bits
Compression mode : Lossy
Video delay : -484ms
Stream size : 23.4 MiB (4%)
Menu

Скриншоты меню

Скриншоты

Скриншоты доп. материалов



Показать сообщения:    

Текущее время: 12-Дек 02:57

Часовой пояс: UTC ± 0


Вы не можете начинать темы
Вы не можете отвечать на сообщения
Вы не можете редактировать свои сообщения
Вы не можете удалять свои сообщения
Вы не можете голосовать в опросах
Вы не можете прикреплять файлы к сообщениям
Вы не можете скачивать файлы

!ВНИМАНИЕ!
Сайт не предоставляет электронные версии произведений, а занимается лишь коллекционированием и каталогизацией ссылок, присылаемых и публикуемых на форуме нашими читателями. Если вы являетесь правообладателем какого-либо представленного материала и не желаете, чтобы ссылка на него находилась в нашем каталоге, свяжитесь с нами, и мы незамедлительно удалим ее. Файлы для обмена на трекере предоставлены пользователями сайта, и администрация не несет ответственности за их содержание. Просьба не заливать файлы, защищенные авторскими правами, а также файлы нелегального содержания!