Важное объявление!
У Нас Все раздачи мультитрекерные, при нуле пиров в релизах, можете смело вставать на закачку!
Статистика раздачи
Размер:     |    Зарегистрирован:     |    Скачан:     |   
Нет
 
     
 
 
Автор Сообщение

HUNTER

Стаж:
5 лет
Сообщений:
68065

Репутация: 101

[+] [-]
Вне форума [Профиль] [ЛС]

Тяжелый металл
Heavy Metal

Страна: Канада
Жанр: Мультфильм, приключения, фэнтези
Продолжительность: 1:30:20
Год выпуска: 1981
Перевод: Авторский (одноголосый закадровый: Сергей Визгунов)
Русские субтитры: есть-Режиссёры: Джералд Поттертон /Gerald Potterton/
Роли озвучивали: Роджер Бампасс /Roger Bumpass/, Джон Кэнди /John Candy/, Джеки Берроуз /Jackie Burroughs/, Джо Флаэрти /Joe Flaherty/, Дон Фрэнкс /Don Francks/, Мартин Лэват /Martin Lavut/-Описание: Это великолепный мультфильм для взрослых, снятый с огромным размахом по комиксам знаменитых художников, рисующих для журнала «Heavy Metal». Удивительное сочетание ужасов, черного юмора и великолепного саундтрека, включающего Nazareth, Black Sabbath, Sammy Hagar, Blue Oyster Cult и др. Этот мультфильм заставит вас с затаенным дыханием следить за напряженной битвой между вселенскими силами добра и зла.
В мультфильме использованы персонажи комиксов "Ден" (Den) Ричарда Корбена, "Капитан Штернн" (Captain Sternn) Берни Райтсона и "Так прекрасна и так опасна" (So Beautiful and So Dangerous) Ангуса МакКая.-О русской дороге: Мне хотелось не просто синхронизировать русскую дорогу, а именно свести ее с оригиналом, чтобы на выходе получить стерео. Но похоже, что VHS-дорога, с которой делался перевод, и BD-дорога сводились по-разному, из-за чего уровень музыкального фона в них отличается, и, как следствие, некоторые переходы получились недостаточно плавными.-Релиз:
21Sepsis ... предоставил перевод Визгунова
Алексис ... сведение-Качество: HDRip
Формат: AVI
Видео: 704x384 (1.83:1), 23.976 fps, XviD build 65 ~1579 kbps avg, 0.24 bit/pixel
Аудио #1: 48 kHz, AC3 Dolby Digital, 2/0 (L,R) ch, ~192.00 kbps avg (Визгунов)
Аудио #2: 48 kHz, AC3 Dolby Digital, 3/2 (L,C,R,l,r) + LFE ch, ~384.00 kbps avg (оригинал)
Субтитры #1: русские | .srt
Субтитры #2: английские | .srt
Сэмпл: http://multi-up.com/1008154

Подробные технические данные

General
Complete name : I:\Heavy Metal (1981) HDRip [Визгунов+ENG].avi
Format : AVI
Format/Info : Audio Video Interleave
File size : 1.37 GiB
Duration : 1h 30mn
Overall bit rate : 2 170 Kbps
Writing application : VirtualDubMod 1.5.10.2 (build 2540/release)
Writing library : VirtualDubMod build 2540/release
Video
ID : 0
Format : MPEG-4 Visual
Format profile : Advanced Simple@L5
Format settings, BVOP : 2
Format settings, QPel : No
Format settings, GMC : No warppoints
Format settings, Matrix : Custom
Codec ID : XVID
Codec ID/Hint : XviD
Duration : 1h 30mn
Bit rate : 1 580 Kbps
Width : 704 pixels
Height : 384 pixels
Display aspect ratio : 1.85:1
Frame rate : 23.976 fps
Color space : YUV
Chroma subsampling : 4:2:0
Bit depth : 8 bits
Scan type : Progressive
Compression mode : Lossy
Bits/(Pixel*Frame) : 0.244
Stream size : 1 021 MiB (73%)
Writing library : XviD 65
Audio #1
ID : 1
Format : AC-3
Format/Info : Audio Coding 3
Mode extension : CM (complete main)
Format settings, Endianness : Big
Codec ID : 2000
Duration : 1h 30mn
Bit rate mode : Constant
Bit rate : 192 Kbps
Channel(s) : 2 channels
Channel positions : Front: L R
Sampling rate : 48.0 KHz
Bit depth : 16 bits
Compression mode : Lossy
Stream size : 124 MiB (9%)
Alignment : Split accross interleaves
Interleave, duration : 42 ms (1.00 video frame)
Interleave, preload duration : 500 ms
Audio #2
ID : 2
Format : AC-3
Format/Info : Audio Coding 3
Mode extension : CM (complete main)
Format settings, Endianness : Big
Codec ID : 2000
Duration : 1h 30mn
Bit rate mode : Constant
Bit rate : 384 Kbps
Channel(s) : 6 channels
Channel positions : Front: L C R, Side: L R, LFE
Sampling rate : 48.0 KHz
Bit depth : 16 bits
Compression mode : Lossy
Stream size : 248 MiB (18%)
Alignment : Split accross interleaves
Interleave, duration : 42 ms (1.00 video frame)
Interleave, preload duration : 500 ms

_________________
Показать сообщения:    

Текущее время: Сегодня 15:05

Часовой пояс: GMT



Вы не можете начинать темы
Вы не можете отвечать на сообщения
Вы не можете редактировать свои сообщения
Вы не можете удалять свои сообщения
Вы не можете голосовать в опросах
Вы не можете прикреплять файлы к сообщениям
Вы не можете скачивать файлы