Ивановский Торрент трекер
Яндекс.Погода
 

[Цитировать]
HUNTER

Тэд Джонс и Затерянный город / Las aventuras de Tadeo Jones
«По следам Индианы Джонса»
- Страна: Испания
Жанр: мультфильм, приключения, семейный
Продолжительность: 01:31:55
Год выпуска: 2012
Перевод: Профессиональный (дублированный)
Русские субтитры: нет-Режиссёр:
Энрике Гато / Enrique Gato-Роли озвучивали:
Пётр Иващенко, Татьяна Шитова, Григорий Антипенко, Станислав Дужников, Федор Добронравов, Даниил Эльдаров, Марина Александрова.-Описание: Тэд — обычный чикагский строитель, страстно мечтающий о невероятных открытиях и опасных приключениях. Однажды его по ошибке принимают за известного археолога и отправляют в Перу на поиски сокровищ инков. Радости Тэда не было предела, но, похоже, она оказалась преждевременной…-Сэмпл | КиноПоиск | IMDb-Качество: HDRip | исх. [Las aventuras de Tadeo Jones (2012) 1080p BDRip. HDClub]
Формат: AVI
Видео: 704x400 (16:9), 23.976 fps, XviD build 65 ~1818 kbps avg, 0.269 bit/pixel
Аудио: 48.0 kHz, AC3 Dolby Digital, 3/2 (L,C,R,l,r) + LFE ch, ~448 kbps | Dub
Субтитры: Отсутствуют
Размер: 1495.82 Mb (1/3 DVD)
-Подробные технические данные
ОбщееПолное имя : A:\Фильмы\Las.aventuras.de.Tadeo.Jones.2012.BDRip.XviD.1.46Gb.AC3.aviФормат : AVIФормат/Информация : Audio Video InterleaveРазмер файла : 1,46 ГбайтПродолжительность : 1 ч. 31 м.Общий поток : 2275 Кбит/секПрограмма кодирования : VirtualDubMod 1.5.10.2 (build 2540/release)Библиотека кодирования : VirtualDubMod build 2540/release
ВидеоИдентификатор : 0Формат : MPEG-4 VisualПрофиль формата : Advanced Simple@L5Параметр BVOP формата : 1Параметр QPel формата : НетПараметр GMC формата : Без точки переходаПараметр матрицы формата : ВыборочнаяИдентификатор кодека : XVIDИдентификатор кодека/Подсказка : XviDПродолжительность : 1 ч. 31 м.Битрейт : 1818 Кбит/секШирина : 704 пикселяВысота : 400 пикселейСоотношение сторон : 16:9Частота кадров : 23,976 кадра/секЦветовое пространство : YUVСубдискретизация насыщенности : 4:2:0Битовая глубина : 8 битТип развёртки : ПрогрессивнаяМетод сжатия : С потерямиБит/(Пиксели*Кадры) : 0.269Размер потока : 1,17 Гбайт (80%)Библиотека кодирования : XviD 65
АудиоИдентификатор : 1Формат : AC-3Формат/Информация : Audio Coding 3Расширение режима : CM (complete main)Параметр Endianness формата : BigИдентификатор кодека : 2000Продолжительность : 1 ч. 31 м.Вид битрейта : ПостоянныйБитрейт : 448 Кбит/секКаналы : 6 каналовРасположение каналов : Front: L C R, Side: L R, LFEЧастота : 48,0 КГцБитовая глубина : 16 битМетод сжатия : С потерямиРазмер потока : 295 Мбайт (20%)Выравнивание : Разделение по промежуткамПродолжительность промежутка : 42 мс. (1,00 видеокадр)Время предзагрузки промежутка : 500 мс.
Скриншоты


Показать сообщения:    

Текущее время: 17-Дек 15:36

Часовой пояс: UTC ± 0


Вы не можете начинать темы
Вы не можете отвечать на сообщения
Вы не можете редактировать свои сообщения
Вы не можете удалять свои сообщения
Вы не можете голосовать в опросах
Вы не можете прикреплять файлы к сообщениям
Вы не можете скачивать файлы

!ВНИМАНИЕ!
Сайт не предоставляет электронные версии произведений, а занимается лишь коллекционированием и каталогизацией ссылок, присылаемых и публикуемых на форуме нашими читателями. Если вы являетесь правообладателем какого-либо представленного материала и не желаете, чтобы ссылка на него находилась в нашем каталоге, свяжитесь с нами, и мы незамедлительно удалим ее. Файлы для обмена на трекере предоставлены пользователями сайта, и администрация не несет ответственности за их содержание. Просьба не заливать файлы, защищенные авторскими правами, а также файлы нелегального содержания!