Важное объявление!
У Нас Все раздачи мультитрекерные, при нуле пиров в релизах, можете смело вставать на закачку!
Статистика раздачи
Размер:     |    Зарегистрирован:     |    Скачан:     |   
Нет
 
     
 
 
Автор Сообщение

димитри37

Стаж:
4 года 5 месяцев
Сообщений:
1236

Репутация: 127

[+] [-]
Вне форума [Профиль] [ЛС]

Ты и я / Io e te
Название: Ты и я
Оригинальное название: Io e te
Страна: италия
Жанр: драма
Год выпуска: 2012
Продолжительность: 01:32:24
Перевод: Профессиональный (многоголосый закадровый) лицензия
Cубтитры: нет
Режиссер: Бернардо Бертолуччи / Bernardo Bertolucci
В ролях: Теа Фалько, Якопо Ольмо Антинори, Соня Бергамаско, Вероника Лазар, Томмазо Раньо, Пиппо Дельбонно, Родольфо Корсато, Франческа Де Мартини, Джон Пол Росси
Описание: Четырнадцатилетний интроверт Лоренцо сторонится сверстников, не находит общего языка с родителями. Когда весь класс отправляется на экскурсию в горы, парень сбегает и запирается в подвале собственного дома, чтобы побыть в одиночестве. Неожиданно для Лоренцо в доме появляется очень необычная девушка, которая загадочным образом оказывается связанной с мальчиком и его семьей...

Качество видео: DVDRip
Формат видео: AVI
Видео: XviD, 720x400, 1859 kb/s, 25 fps
Аудио: AC3, 384 kb/s (6 ch), 48 КГц

MediaInfo

Общее
Полное имя : D:\Ty.i.ja_2012.DVDRip.avi
Формат : AVI
Формат/Информация : Audio Video Interleave
Размер файла : 1,46 Гбайт
Продолжительность : 1 ч. 32 м.
Общий поток : 2254 Кбит/сек
Программа кодирования : VirtualDubModRus 1.5.10.2 (build 2542/release)
Библиотека кодирования : VirtualDubMod build 2542/release
Видео
Идентификатор : 0
Формат : MPEG-4 Visual
Профиль формата : Advanced Simple@L5
Параметр BVOP формата : 2
Параметр QPel формата : Нет
Параметр GMC формата : Без точки перехода
Параметр матрицы формата : Выборочная
Идентификатор кодека : XVID
Идентификатор кодека/Подсказка : XviD
Продолжительность : 1 ч. 32 м.
Битрейт : 1860 Кбит/сек
Ширина : 720 пикселей
Высота : 400 пикселей
Соотношение сторон : 16:9
Частота кадров : 25,000 кадров/сек
Цветовое пространство : YUV
Субдискретизация насыщенности : 4:2:0
Битовая глубина : 8 бит
Тип развёртки : Прогрессивная
Метод сжатия : С потерями
Бит/(Пиксели*Кадры) : 0.258
Размер потока : 1,20 Гбайт (83%)
Библиотека кодирования : XviD 64
Аудио
Идентификатор : 1
Формат : AC-3
Формат/Информация : Audio Coding 3
Расширение режима : CM (complete main)
Параметр Endianness формата : Big
Идентификатор кодека : 2000
Продолжительность : 1 ч. 32 м.
Вид битрейта : Постоянный
Битрейт : 384 Кбит/сек
Каналы : 6 каналов
Расположение каналов : Front: L C R, Side: L R, LFE
Частота : 48,0 КГц
Битовая глубина : 16 бит
Метод сжатия : С потерями
Задержка видео : 1 с. 750 мс.
Размер потока : 254 Мбайт (17%)
Выравнивание : Разделение по промежуткам
Продолжительность промежутка : 40 мс. (1,00 видеокадр)
Время предзагрузки промежутка : 500 мс.

Скриншот c названием фильма

Скриншоты

Показать сообщения:    

Текущее время: Сегодня 23:46

Часовой пояс: GMT



Вы не можете начинать темы
Вы не можете отвечать на сообщения
Вы не можете редактировать свои сообщения
Вы не можете удалять свои сообщения
Вы не можете голосовать в опросах
Вы не можете прикреплять файлы к сообщениям
Вы не можете скачивать файлы