Ивановский Торрент трекер
Яндекс.Погода
 

[Цитировать]
HUNTER

Тысяча дней королевы Анны / Анна на тысячу дней / Anne of the Thousand Days- Год выпуска: 1969
Страна: Великобритания
Жанр: драма, исторический
Продолжительность: 02:25:11
Перевод 1: Профессиональный (многоголосый закадровый) "Фильмэкспорт" по заказу СТС
Перевод 2: Профессиональный (многоголосый закадровый) НТВ
Перевод 3: Авторский (одноголосый закадровый) Лёша Прапорщик
Оригинальная аудиодорожка: Английская
Cубтитры: Английские, немецкие-Режиссер: Чарльз Джэрротт / Charles Jarrot
В ролях: Ричард Бёртон, Женевьев Бюжо, Ирен Папас, Энтони Куэйл, Джон Коликос, Майкл Хордерн, Кэтрин Блейк, Питер Джефри, Джозеф О’Конор, Уильям Скуайр-Описание:
По пьесе Максвелла Андерсона (Maxwell Anderson).
Английский король Генрих VIII всю жизнь мечтал о наследнике, но его жена, королева Екатерина Арагонская за долгие годы совместной жизни произвела на свет лишь дочь. Король просит у Папы римского разрешения на развод. Генрих хочет сделать новой королевой восемнадцатилетнюю Анну Болейн, уже беременную от него. Из Ватикана приходит отказ на просьбу короля. В 1533 году Генрих VIII идет на разрыв с католической церковью и становится основателем новой церкви — англиканской. Генрих устраняет все препятствия и добивается коронации Анны. Но его надеждам не суждено оправдаться, Анна приносит мужу еще одну дочь…-За СТС спасибо palmeiras, за НТВ спасибо StudioRAK, за Прапорщика — sasikainen.
| IMDb | Сэмпл-Качество: BDRip 720p (TayTO)
Контейнер: MKV
Видео: x264, 1280x544 (2.35:1), 24 fps, 10448 kbps
Аудио 1: Русский AС3, 2.0, 48 kHz, 192 kbps – СТС
Аудио 2: Русский AС3, 2.0, 48 kHz, 192 kbps – НТВ
Аудио 3: Русский AС3, 2.0, 48 kHz, 192 kbps – Лёша Прапорщик
Аудио 4: Английский FLAC 2.0, 48 kHz, 476 kbps
Формат субтитров: softsub (SRT)

Скриншоты

Source vs TayTO


-

MI

nfo
MOVIE iNFO
GENRE.........: Drama, History
IMDB RATING...: 7,5/10 from 4.304 users
LINK..........: http://www.imdb.com/title/tt0064030/
RELEASE iNFO
RELEASE NAME..: Anne.of.the.Thousand.Days.1969.720p.BluRay.FLAC2.0.x264-TayTO
ENCODED DATE..: UTC 2014-06-08 21:23:47
RELEASE SIZE..: 11.1 GiB
RUNTIME.......: 2h 25mn
VIDEO CODEC...: x264, High@L4.1
FRAMERATE.....: 24.000 fps
BITRATE.......: 10.2 Mbps
RESOLUTION....: 1280x544
AUDIO.........: English FLAC 2.0@476 Kbps
CHAPTERS......: Yes
SUBTITLES.....: German
SOURCE........: Anne of the Thousand Days 1969 1080p GER Blu-ray AVC LPCM 2.0
Encoder.......: BodoiCuHo@TayTO
NOTES
SCREENS MIRROR: http://imgbox.com/g/AkXfKF4rDI or http://someimage.com/RWQi
Special thanks to all TayTO members, Th3, KHAN, Koenig, Mendax, Nick007, k4ne, raphaex, rose and my friends!
x264 iNFO
x264 [info]: frame I:1400 Avg QP:16.52 size:132485
x264 [info]: frame P:37854 Avg QP:17.58 size: 73663
x264 [info]: frame B:169809 Avg QP:18.97 size: 49484
x264 [info]: consecutive B-frames: 1.1% 0.9% 3.5% 9.7% 13.5% 43.0% 14.5% 13.9%
encoded 209063 frames, 2.80 fps, 10448.16 kb/s, duration 20:44:58.93
General
Unique ID : 172696865434298981007572909475668100561 (0x81EC34D9867B390CAAB9829AA28305D1)
Complete name : Anne.of.the.Thousand.Days.1969.720p.BluRay.x264-TayTO.mkv
Format : Matroska
Format version : Version 2
File size : 11.7 GiB
Duration : 2h 25mn
Overall bit rate mode : Variable
Overall bit rate : 11.5 Mbps
Movie name : Anne of the Thousand Days / Тысяча дней королевы Анны (1969) – RuTracker
Encoded date : UTC 2014-07-02 15:06:13
Writing application : mkvmerge v7.0.0 ('Where We Going') 64bit built on Jun 9 2014 15:16:27
Writing library : libebml v1.3.0 + libmatroska v1.4.1
Attachment : Yes
Video
ID : 1
Format : AVC
Format/Info : Advanced Video Codec
Format profile : High@L4.1
Format settings, CABAC : Yes
Format settings, ReFrames : 12 frames
Codec ID : V_MPEG4/ISO/AVC
Duration : 2h 25mn
Width : 1 280 pixels
Height : 544 pixels
Display aspect ratio : 2.35:1
Frame rate mode : Constant
Frame rate : 24.000 fps
Color space : YUV
Chroma subsampling : 4:2:0
Bit depth : 8 bits
Scan type : Progressive
Title : Anne.of.the.Thousand.Days.1969.720p.BluRay.FLAC2.0.x264-TayTO
Writing library : x264 core 142 r2431kMod ac76440
Encoding settings : cabac=1 / ref=12 / deblock=1:-3:-3 / analyse=0x3:0x133 / me=tesa / subme=11 / psy=1 / fade_compensate=0.00 / psy_rd=1.10:0.00 / mixed_ref=1 / me_range=24 / chroma_me=1 / trellis=2 / 8x8dct=1 / cqm=0 / deadzone=21,11 / fast_pskip=0 / chroma_qp_offset=-2 / threads=12 / lookahead_threads=2 / sliced_threads=0 / nr=0 / decimate=1 / interlaced=0 / bluray_compat=0 / constrained_intra=0 / fgo=0 / bframes=7 / b_pyramid=2 / b_adapt=2 / b_bias=0 / direct=3 / weightb=1 / open_gop=0 / weightp=2 / keyint=250 / keyint_min=24 / scenecut=40 / intra_refresh=0 / rc=crf / mbtree=0 / crf=16.1000 / qcomp=0.70 / qpmin=0 / qpmax=69 / qpstep=4 / ip_ratio=1.30 / pb_ratio=1.20 / aq=1:0.65
Language : English
Default : Yes
Forced : No
Matrix coefficients : BT.709
Audio #1
ID : 2
Format : AC-3
Format/Info : Audio Coding 3
Mode extension : CM (complete main)
Format settings, Endianness : Big
Codec ID : A_AC3
Duration : 2h 25mn
Bit rate mode : Constant
Bit rate : 192 Kbps
Channel(s) : 2 channels
Channel positions : Front: L R
Sampling rate : 48.0 KHz
Bit depth : 16 bits
Compression mode : Lossy
Stream size : 199 MiB (2%)
Title : MVO – СТС
Language : Russian
Default : Yes
Forced : No
Audio #2
ID : 3
Format : AC-3
Format/Info : Audio Coding 3
Mode extension : CM (complete main)
Format settings, Endianness : Big
Codec ID : A_AC3
Duration : 2h 25mn
Bit rate mode : Constant
Bit rate : 192 Kbps
Channel(s) : 2 channels
Channel positions : Front: L R
Sampling rate : 48.0 KHz
Bit depth : 16 bits
Compression mode : Lossy
Stream size : 199 MiB (2%)
Title : MVO – НТВ
Language : Russian
Default : No
Forced : No
Audio #3
ID : 4
Format : AC-3
Format/Info : Audio Coding 3
Mode extension : CM (complete main)
Format settings, Endianness : Big
Codec ID : A_AC3
Duration : 2h 25mn
Bit rate mode : Constant
Bit rate : 192 Kbps
Channel(s) : 2 channels
Channel positions : Front: L R
Sampling rate : 48.0 KHz
Bit depth : 16 bits
Compression mode : Lossy
Stream size : 199 MiB (2%)
Title : AVO – Лёша Прапорщик
Language : Russian
Default : No
Forced : No
Audio #4
ID : 5
Format : FLAC
Format/Info : Free Lossless Audio Codec
Codec ID : A_FLAC
Duration : 2h 25mn
Bit rate mode : Variable
Channel(s) : 2 channels
Sampling rate : 48.0 KHz
Bit depth : 16 bits
Title : Original
Writing library : libFLAC 1.2.1 (UTC 2007-09-17)
Language : English
Default : No
Forced : No
Text #1
ID : 6
Format : UTF-8
Codec ID : S_TEXT/UTF8
Codec ID/Info : UTF-8 Plain Text
Language : English
Default : No
Forced : No
Text #2
ID : 7
Format : UTF-8
Codec ID : S_TEXT/UTF8
Codec ID/Info : UTF-8 Plain Text
Language : German
Default : No
Forced : No
Menu
00:00:00.000 : en:Chapter 01
00:03:12.000 : en:Chapter 02
00:11:09.583 : en:Chapter 03
00:18:42.666 : en:Chapter 04
00:25:24.125 : en:Chapter 05
00:34:30.625 : en:Chapter 06
00:42:57.416 : en:Chapter 07
00:49:47.250 : en:Chapter 08
01:00:40.958 : en:Chapter 09
01:10:47.416 : en:Chapter 10
01:18:45.125 : en:Chapter 11
01:29:11.000 : en:Chapter 12
01:36:24.208 : en:Chapter 13
01:43:57.000 : en:Chapter 14
01:52:03.125 : en:Chapter 15
02:00:28.208 : en:Chapter 16
02:10:42.791 : en:Chapter 17
02:18:21.625 : en:Chapter 18


Показать сообщения:    

Текущее время: 17-Дек 16:01

Часовой пояс: UTC ± 0


Вы не можете начинать темы
Вы не можете отвечать на сообщения
Вы не можете редактировать свои сообщения
Вы не можете удалять свои сообщения
Вы не можете голосовать в опросах
Вы не можете прикреплять файлы к сообщениям
Вы не можете скачивать файлы

!ВНИМАНИЕ!
Сайт не предоставляет электронные версии произведений, а занимается лишь коллекционированием и каталогизацией ссылок, присылаемых и публикуемых на форуме нашими читателями. Если вы являетесь правообладателем какого-либо представленного материала и не желаете, чтобы ссылка на него находилась в нашем каталоге, свяжитесь с нами, и мы незамедлительно удалим ее. Файлы для обмена на трекере предоставлены пользователями сайта, и администрация не несет ответственности за их содержание. Просьба не заливать файлы, защищенные авторскими правами, а также файлы нелегального содержания!