Тыквоголовый / Адская месть / Демон-мститель / Pumpkinhead / Das Halloween Monster / Vengeance: The Demon / Pacto de sangre (Стэн Уинстон / Stan Winston) [1988, США, ужасы, DVD9 (Custom)] 2xAVO + VO + MVO + Sub Eng,Esp,Fra +Orig :: Ивановский Торрент трекер
Важное объявление!
У Нас Все раздачи мультитрекерные, при нуле пиров в релизах, можете смело вставать на закачку!
Статистика раздачи
Размер:     |    Зарегистрирован:     |    Скачан:     |   
Нет
 
     
 
 
Автор Сообщение

HUNTER

Стаж:
4 года 11 месяцев
Сообщений:
66052

Репутация: 101

[+] [-]
Вне форума [Профиль] [ЛС]

Тыквоголовый / Адская месть / Демон-мститель / Pumpkinhead / Das Halloween Monster / Vengeance: The Demon / Pacto de sangre
Страна: США
Студия: Lion Films
Жанр: ужасы
Год выпуска: 1988
Продолжительность: 01:26:28
Перевод: Авторский (одноголосый закадровый) Горчаков
Перевод 2: Авторский (одноголосый закадровый) Живов
Перевод 3: Одноголосый закадровый Логинофф
Перевод 4: Профессиональный (многоголосый закадровый)
Cубтитры: английские
Оригинальная аудиодорожка: английский
Режиссер: Стэн Уинстон / Stan Winston
В ролях: Лэнс Хэнриксен, Синтия Бейн, Джефф Ист, Кимберли Росс
Описание: «Адская смерть» или «Тыквоголовый» - дебютная режиссёрская работа известного мастера спецэффектов Стэна Уинстона, плоды деятельности которого вы можете увидеть в фильмах Джеймса Кэмерона «Чужие» и «Терминатор». Этот человек всю жизнь занимался созданием монстров и всеразличных эффектов, и, естественно, его первым фильмом стала картина об ужасном демоне, вызванном в наш мир посредством чёрной магии. Эта лента была довольно популярна в России в эпоху видео, а также собрала неплохую кассу у себя на родине в США.
Группа молодых людей приезжает в малонаселенную местность, чтобы покататься на мотоциклах и просто отдохнуть. В этой округе живет всего лишь несколько семей, и молодые люди решают остановиться возле дома некоего Эда Харли (Лэнс Хенриксен), который живет здесь со своим маленьким сыном. В самый разгар гонок его сынишка бежит за собакой и попадает прямо под колеса несущегося мотоцикла. Виновный в происшествии был пьян и уже имел подобные инциденты в прошлом, поэтому он уговаривает остальных поскорее смыться с места преступления, но один парень всё же остается. Он рассказывает Эду о несчастном случае, но тот, не проронив ни слова, идет к местной лесной колдунье и просит совершить акт мести. В этих краях уже делали нечто подобное и Эд, будучи ребенком, сам видел ужасное существо, уничтожавшее «помеченных» людей. Теперь он просит старуху вновь вызвать этого демона, дабы отомстить за смерть своего сына. И тот не заставляет себя долго ждать, начиная истреблять молодых людей и девушек весьма жестокими способами. В моменты убийств в сознании Эда всплывают образы с этими смертями и после того, как второй человек из молодежной группы был зверски убит, он вновь идет к ведьме и просит вернуть демона обратно в преисподнюю. Однако этого сделать уже нельзя и демон не уйдет из нашего мира, пока не уничтожит всех «помеченных» людей…
Имея на руках около 3,5 млн. долларов в качестве бюджета и будучи талантливым человеком, Стэн Уинстон снял очень качественный и захватывающий фильм, у которого практически нет недостатков и который до сих пор выглядит устрашающе. Первые 30 минут ленты могут показаться немножко затянутыми, но последующие события и появление монстра с лихвой компенсируют небольшую «пробуксовку» в начале.
Действие первых 30 минут происходит днем, а остальной части фильма ночью, что позволяет режиссёру создать мрачную и жуткую атмосферу. Мне очень понравились сцены в логове ведьмы, а также на старом кладбище, где Эд откапывал труп для ритуала и последующего вызова демона. Затем этот демон начинает охотится за молодежью, которая будет прятаться в лесах, заброшенных домиках и даже развалинах старой часовни. Все эти сцены смотрятся очень хорошо и сняты по-настоящему красиво. Преобладающий синий цвет, жуткая атмосфера, ожидание прихода демона делают свое дело и производят очень хорошее впечатление на зрителя, который будет сидеть перед экраном словно завороженный.
Сам монстр выглядит великолепно и авторы не стесняются его показывать в полную величину. Он представляет собой жуткое существо на длинных ногах с длинными когтистыми лапами, которое очень быстро передвигается и умеет лазать по деревьям. Голова его, однако, на тыкву не похожа, но это не так важно, ибо морда у него свирепая и зубастая, т.е. именно такая, чтобы вызвать ужас в глазах героев. Сцены ожидания прихода монстра, а также его приход в часовню смотрятся просто великолепно. Не думаю, что кто-нибудь из зрителей хотел бы повстречать такого в тёмном переулке или увидеть его во сне.
На главную роль Стэн Уинстон пригласил Лэнса Хенриксена, с которым уже работал на фильме Джеймса Кэмерона «Чужие». Он отлично справился со своей задачей, передав сначала гнев и ярость отца погибшего ребенка, а потом отчаянное рвение остановить то безумие, которое сам же начал. Остальные актёры, большинство из которых молодежь, тоже вполне достойно смотрятся на экране.
«Адская месть» - отличный фильм ужасов 1980-х, полностью заслуженно пользовавшийся популярностью в нас на видео и за границей. Это страшное, мистическое, красивое и довольно динамичное (не считая первых 30 минут) кино придется по вкусу всем любителям настоящих фильмов ужасов, которые делали в прошлом веке. Однозначно, шедевр!
Доп. информация: Русские звуковые дорожки взяты с этих раздач [url=http://rutracker.org/forum/tracker.php?nm=Pumpkinhead%20(1988]http://rutracker.org/forum/tracker.php?nm=Pumpkinhead%20(1988[/url] авторам большое спасибо.
За синхронизацию огромное спасибо Нордер.
При пересборе двд были использованы программы:
PgcDemux - разделение компонентов диска на файлы
Muxman - мультиплексирование и авторинг DVD
VobBlanker - реавторинг DVD

Скрин завершения проекта

Бонусы: Коментарии, удаоённые сцены, трейлеры, галерея
Сэмпл: http://sendfile.su/1132786
Тип релиза: DVD9 (Custom)
Контейнер: DVD-Video
Видео: NTSC 16:9 (720x480) VBR Auto Pan&Scan
Аудио: Russian (Dolby AC3, 192 Kbps, 2 ch)
Аудио 2: Russian (Dolby AC3, 192 Kbps, 2 ch)
Аудио 3: Russian (Dolby AC3, 192 Kbps, 2 ch)
Аудио 4: Russian (Dolby AC3, 192 Kbps, 2 ch)
Аудио 5: English (Dolby AC3, 192 Kbps, 2 ch)
Аудио 6: English (Dolby AC3, 192 Kbps, 2 ch) (коментарии)
Формат субтитров: prerendered (DVD/IDX+SUB)

DVDInfo

Size: 7.90 Gb ( 8 288 478 KBytes ) - DVD-9
Enabled regions: 1, 2, 3, 4, 5, 6, 7, 8
VTS_01 :
Play Length:
Video: NTSC 16:9 (720x480) VBR, Auto Pan&Scan
VTS_02 :
Play Length: 00:00:01
Video: NTSC 16:9 (720x480) VBR, Auto Pan&Scan
VTS_03 :
Play Length: 01:26:28
Video: NTSC 16:9 (720x480) VBR, Auto Pan&Scan
Audio:
Russian (Dolby AC3, 2 ch)
Russian (Dolby AC3, 2 ch)
Russian (Dolby AC3, 2 ch)
Russian (Dolby AC3, 2 ch)
English (Dolby AC3, 2 ch)
English (Dolby AC3, 2 ch)
Subtitles:
English
Espanol
Francais
VTS_04 :
Play Length: 00:00:01
Video: NTSC 16:9 (720x480) VBR, Auto Pan&Scan
VTS_05 :
Play Length: 00:00:01
Video: NTSC 16:9 (720x480) VBR, Auto Pan&Scan
VTS_06 :
Play Length: 00:05:10+00:07:30+01:05:47+00:08:40+00:15:15+00:09:44+00:13:33+00:11:07+00:07:28
Video: NTSC 16:9 (720x480) VBR, Auto Pan&Scan
Audio:
English (Dolby AC3, 2 ch)
VTS_07 :
Play Length: 00:00:26
Video: NTSC 16:9 (720x480) VBR, Auto Letterboxed
Subtitles:
English
VTS_08 :
Play Length: 00:00:01+00:01:32
Video: NTSC 4:3 (720x480) VBR
Audio:
English (Dolby AC3, 2 ch)
Menu Video:
NTSC 16:9 (720x480) VBR
Auto Letterboxed
Menu Subtitles:
Not specified
Menu English Language Unit :
Root Menu
Subpicture Menu
Audio Menu
Chapter (PTT) Menu

MediaInfo

General
Complete name : K:\Pumpkinhead_1988\VIDEO_TS\VTS_03_1.VOB
Format : MPEG-PS
File size : 1 024 MiB
Duration : 20mn 2s
Overall bit rate mode : Variable
Overall bit rate : 7 145 Kbps
Video
ID : 224 (0xE0)
Format : MPEG Video
Format version : Version 2
Format profile : Main@Main
Format settings, BVOP : Yes
Format settings, Matrix : Custom
Duration : 20mn 2s
Bit rate mode : Variable
Bit rate : 5 851 Kbps
Maximum bit rate : 9 800 Kbps
Width : 720 pixels
Height : 480 pixels
Display aspect ratio : 16:9
Frame rate : 23.976 fps
Standard : Component
Color space : YUV
Chroma subsampling : 4:2:0
Bit depth : 8 bits
Scan type : Progressive
Scan order : 2:3 Pulldown
Compression mode : Lossy
Bits/(Pixel*Frame) : 0.706
Stream size : 838 MiB (82%)
Color primaries : BT.601 NTSC
Transfer characteristics : BT.601
Matrix coefficients : BT.601
Audio #1
ID : 189 (0xBD)-128 (0x80)
Format : AC-3
Format/Info : Audio Coding 3
Mode extension : CM (complete main)
Format settings, Endianness : Big
Muxing mode : DVD-Video
Duration : 20mn 2s
Bit rate mode : Constant
Bit rate : 192 Kbps
Channel(s) : 2 channels
Channel positions : Front: L R
Sampling rate : 48.0 KHz
Bit depth : 16 bits
Compression mode : Lossy
Stream size : 27.5 MiB (3%)
Audio #2
ID : 189 (0xBD)-129 (0x81)
Format : AC-3
Format/Info : Audio Coding 3
Mode extension : CM (complete main)
Format settings, Endianness : Big
Muxing mode : DVD-Video
Duration : 20mn 2s
Bit rate mode : Constant
Bit rate : 192 Kbps
Channel(s) : 2 channels
Channel positions : Front: L R
Sampling rate : 48.0 KHz
Bit depth : 16 bits
Compression mode : Lossy
Stream size : 27.5 MiB (3%)
Audio #3
ID : 189 (0xBD)-130 (0x82)
Format : AC-3
Format/Info : Audio Coding 3
Mode extension : CM (complete main)
Format settings, Endianness : Big
Muxing mode : DVD-Video
Duration : 20mn 2s
Bit rate mode : Constant
Bit rate : 192 Kbps
Channel(s) : 2 channels
Channel positions : Front: L R
Sampling rate : 48.0 KHz
Bit depth : 16 bits
Compression mode : Lossy
Stream size : 27.5 MiB (3%)
Audio #4
ID : 189 (0xBD)-131 (0x83)
Format : AC-3
Format/Info : Audio Coding 3
Mode extension : CM (complete main)
Format settings, Endianness : Big
Muxing mode : DVD-Video
Duration : 20mn 2s
Bit rate mode : Constant
Bit rate : 192 Kbps
Channel(s) : 2 channels
Channel positions : Front: L R
Sampling rate : 48.0 KHz
Bit depth : 16 bits
Compression mode : Lossy
Stream size : 27.5 MiB (3%)
Audio #5
ID : 189 (0xBD)-132 (0x84)
Format : AC-3
Format/Info : Audio Coding 3
Format profile : Dolby Digital
Mode extension : CM (complete main)
Format settings, Endianness : Big
Muxing mode : DVD-Video
Duration : 20mn 2s
Bit rate mode : Constant
Bit rate : 192 Kbps
Channel(s) : 2 channels
Channel positions : Front: L R
Sampling rate : 48.0 KHz
Bit depth : 16 bits
Compression mode : Lossy
Stream size : 27.5 MiB (3%)
Audio #6
ID : 189 (0xBD)-133 (0x85)
Format : AC-3
Format/Info : Audio Coding 3
Mode extension : CM (complete main)
Format settings, Endianness : Big
Muxing mode : DVD-Video
Duration : 20mn 2s
Bit rate mode : Constant
Bit rate : 192 Kbps
Channel(s) : 2 channels
Channel positions : Front: L R
Sampling rate : 48.0 KHz
Bit depth : 16 bits
Compression mode : Lossy
Stream size : 27.5 MiB (3%)
Text #1
ID : 224 (0xE0)-CC3
Format : EIA-608
Muxing mode : DVD-Video
Muxing mode, more info : Muxed in Video #1
Bit rate mode : Constant
Stream size : 0.00 Byte (0%)
Text #2
ID : 189 (0xBD)-32 (0x20)
Format : RLE
Format/Info : Run-length encoding
Muxing mode : DVD-Video
Text #3
ID : 189 (0xBD)-33 (0x21)
Format : RLE
Format/Info : Run-length encoding
Muxing mode : DVD-Video
Text #4
ID : 189 (0xBD)-34 (0x22)
Format : RLE
Format/Info : Run-length encoding
Muxing mode : DVD-Video
Menu

Скриншоты меню


_________________
Показать сообщения:    

Текущее время: Сегодня 21:02

Часовой пояс: GMT



Вы не можете начинать темы
Вы не можете отвечать на сообщения
Вы не можете редактировать свои сообщения
Вы не можете удалять свои сообщения
Вы не можете голосовать в опросах
Вы не можете прикреплять файлы к сообщениям
Вы не можете скачивать файлы