Ивановский Торрент трекер
Яндекс.Погода
 

[Цитировать]
neon10_10

Тусовщики из супермаркета (Лоботрясы) / Mallrats
Страна: США
Студия: View Askew
Жанр: Комедия
Год выпуска: 1995
Продолжительность: 01:35:13
Перевод: Профессиональный (многоголосый закадровый)
Перевод (2): Авторский (одноголосый закадровый) Доп.инфо о переводе2 LeXiKC (ненормативная лексика)
Cубтитры: английские, русские, русские LeXiKC (ненормативная лексика)
Режиссер: Кевин Смит / Kevin Smith
В ролях: Шеннон Доэрти, Джереми Лондон, Джейсон Ли, Клер Форлани, Бен Аффлек, Джои Лоурен Адамс, Рени Хамфри, Джейсон Мьюз, Этан Сапли, Стэн Ли
Описание: Молодые ребята приходят в этот супермаркет не работать, не купить что-нибудь — они просто тусуются. Они ссорятся и мирятся со своими подружками, выясняют отношения, чешут языки, обсуждая друг друга и общих знакомых — перед зрителем вырисовывается жизнь нескольких человек, хотя все действие практически ограничено одним помещением.
Это тот период, когда человек уже закончил школу, но еще не вошел во взрослую жизнь — бывшие одноклассники держатся вместе, но скоро уже придется взрослеть и брать на себя ответственность. А пока они шалят по инерции.
Тип релиза: HDDVDRemux 1080p
Контейнер: MKV
Видео: VC-1 (WVC1) 1080p, fps 23.976, 16:9 21982 Kbps
Аудио: Английский DTS, 1510Kbps, 6CH, 48.0 KHz, 24 bits
Аудио 2: Русский MVO, AC3, 640Kbps, 6CH, 48.0 KHz, 16 bits
Аудио 3: Русский VO, AC3, 640Kbps, 6CH, 48.0 KHz, 16 bits
Формат субтитров: softsub (SRT)

MediaInfo

mediainfo:
General
Unique ID : 225226872570039472308693237408863679891 (0xA9711E29360FF50CA90566560EA4F593)
Complete name : mallrats.mkv
Format : Matroska
File size : 16.5 GiB
Duration : 1h 35mn
Overall bit rate : 24.8 Mbps
Encoded date : UTC 2011-01-04 09:51:06
Writing application : mkvmerge v4.4.0 ('Die Wiederkehr') built on Oct 31 2010 21:52:48
Writing library : libebml v1.0.0 + libmatroska v1.0.0
Video
ID : 1
Format : VC-1
Format profile : AP@L3
Codec ID : WVC1
Codec ID/Hint : Microsoft
Duration : 1h 35mn
Bit rate : 21.5 Mbps
Width : 1 920 pixels
Height : 1 080 pixels
Display aspect ratio : 16:9
Frame rate : 23.976 fps
Chroma subsampling : 4:2:0
Bit depth : 8 bits
Scan type : Progressive
Compression mode : Lossy
Bits/(Pixel*Frame) : 0.432
Stream size : 14.3 GiB (87%)
Audio #1
ID : 2
Format : DTS
Format/Info : Digital Theater Systems
Codec ID : A_DTS
Duration : 1h 35mn
Bit rate mode : Constant
Bit rate : 1 510 Kbps
Channel(s) : 6 channels
Channel positions : Front: L C R, Side: L R, LFE
Sampling rate : 48.0 KHz
Bit depth : 24 bits
Compression mode : Lossy
Delay relative to video : 11ms
Stream size : 1.00 GiB (6%)
Language : English
Audio #2
ID : 3
Format : AC-3
Format/Info : Audio Coding 3
Mode extension : CM (complete main)
Codec ID : A_AC3
Duration : 1h 35mn
Bit rate mode : Constant
Bit rate : 640 Kbps
Channel(s) : 6 channels
Channel positions : Front: L C R, Side: L R, LFE
Sampling rate : 48.0 KHz
Bit depth : 16 bits
Compression mode : Lossy
Stream size : 436 MiB (3%)
Title : MVO
Language : Russian
Audio #3
ID : 4
Format : AC-3
Format/Info : Audio Coding 3
Mode extension : CM (complete main)
Codec ID : A_AC3
Duration : 1h 35mn
Bit rate mode : Constant
Bit rate : 640 Kbps
Channel(s) : 6 channels
Channel positions : Front: L C R, Side: L R, LFE
Sampling rate : 48.0 KHz
Bit depth : 16 bits
Compression mode : Lossy
Stream size : 436 MiB (3%)
Title : LeXiKC
Language : Russian
Text #1
ID : 5
Format : UTF-8
Codec ID : S_TEXT/UTF8
Codec ID/Info : UTF-8 Plain Text
Language : English
Text #2
ID : 6
Format : UTF-8
Codec ID : S_TEXT/UTF8
Codec ID/Info : UTF-8 Plain Text
Language : Russian
Text #3
ID : 7
Format : UTF-8
Codec ID : S_TEXT/UTF8
Codec ID/Info : UTF-8 Plain Text
Title : LeXiKC
Language : Russian
Menu
00:00:00.000 : :Main Titles
00:02:15.134 : :Julie Can't Make It
00:11:28.104 : :Brandi's Father
00:18:02.080 : :Breakfast Time
00:30:31.788 : :Willam
00:42:31.465 : :Hatchet Men
00:55:44.591 : :The Master Plan
01:08:27.228 : :Comic Book Store
01:17:09.625 : :Fashionable Male
01:24:27.562 : :Gwen
mkvverify:
raw stream sizes:
track 1 : 15,699,534,144 avg. bitrate: 21,982 kbps frames: 136,989
track 2 : 1,078,261,437 avg. bitrate: 1,510 kbps frames: 535,649
track 3 : 457,088,000 avg. bitrate: 640 kbps frames: 178,550
track 4 : 457,088,000 avg. bitrate: 640 kbps frames: 178,550
track 5 : 71,150 avg. bitrate: 0 kbps frames: 1,405
track 6 : 102,431 avg. bitrate: 0 kbps frames: 1,252
track 7 : 113,209 avg. bitrate: 0 kbps frames: 1,232
-----------------------------------------------------------------------------
sum of tracks : 17,692,258,371
segment size : 17,694,920,208
-----------------------------------------------------------------------------
overhead : 2,661,837

Скриншоты

-Источник:
Показать сообщения:    

Текущее время: 22-Окт 00:16

Часовой пояс: UTC - 1


Вы не можете начинать темы
Вы не можете отвечать на сообщения
Вы не можете редактировать свои сообщения
Вы не можете удалять свои сообщения
Вы не можете голосовать в опросах
Вы не можете прикреплять файлы к сообщениям
Вы не можете скачивать файлы

!ВНИМАНИЕ!
Сайт не предоставляет электронные версии произведений, а занимается лишь коллекционированием и каталогизацией ссылок, присылаемых и публикуемых на форуме нашими читателями. Если вы являетесь правообладателем какого-либо представленного материала и не желаете, чтобы ссылка на него находилась в нашем каталоге, свяжитесь с нами, и мы незамедлительно удалим ее. Файлы для обмена на трекере предоставлены пользователями сайта, и администрация не несет ответственности за их содержание. Просьба не заливать файлы, защищенные авторскими правами, а также файлы нелегального содержания!