Важное объявление!
У Нас Все раздачи мультитрекерные, при нуле пиров в релизах, можете смело вставать на закачку!
 
Автор Сообщение

димитри37

Стаж:
4 года
Сообщений:
1236

Репутация: 127

[+] [-]
Вне форума [Профиль] [ЛС]

Турне миллионера / The Millionaire Tour
Страна: США
Студия: Hanged Man Pictures, Vuguru
Жанр: Боевик, триллер
Год выпуска: 2012
Продолжительность: 01:20:42
Перевод: Профессиональный (многоголосый закадровый) SET
Cубтитры: английские
Оригинальная аудиодорожка: английский
Режиссер: Айнон Шампаньер / Inon Shampanier
В ролях: Доминик Монаган, Джордан Белфи, Рик Гомез, Агнес Брюкнер, Брюс Дэвисон, Мариса Петроро, Дэйв Вешио, Лора Спенсер, Рон Рогге, Дженьюэри Малкус
Описание: Коммивояжер Грег Ньюман садится в такси. Все идет нормально, пока водитель не сбивает женщину. Таксист предлагает довезти до больницы потерпевшую, Билли, и ее парня Каспера, которые, сев в такси, берут Грега в заложники. Так начинается «турне миллионера» — коварный бандитский замысел. Билли с Каспером, угрожая Грегу пистолетом, заставляют его снимать деньги со всех своих банковских карт, останавливаясь у многочисленных банкоматов. Но оказывается, им нужны не только деньги Грега. Каспер с Билли работают на могущественного преступника по кличке Римлянин, который приказал им поймать Грега. Римлянин уверен, что Грег на самом деле преступник по имени Джулиус Джекс, укравший у него миллионы долларов. И теперь Римлянин во что бы то ни стало хочет отомстить Грегу. Грег уверяет похитителей, что он невиновен…

Тип релиза: HDTV 1080i
Контейнер: MKV
Видео: AVC 1920x1080 (16:9) 25.000fps Bit rate 5777Kbps
Аудио 1: AC3 48.0KHz 2ch 192 Kbps MVO rus
Аудио 2: AC3 48.0KHz 2ch 192 Kbps eng

MediaInfo

General
Complete name : E:\torrent\Турне миллионера.mkv
Format : Matroska
File size : 3.54 GiB
Duration : 1h 20mn
Overall bit rate : 6 286 Kbps
Encoded date : UTC 2013-05-01 10:01:15
Writing application : mkvmerge v5.7.0 ('The Whirlwind') built on Jul 8 2012 20:08:51
Writing library : libebml v1.2.3 + libmatroska v1.3.0
Video
ID : 1
Format : AVC
Format/Info : Advanced Video Codec
Format profile : High@L4.0
Format settings, CABAC : Yes
Format settings, ReFrames : 3 frames
Muxing mode : Container profile=Unknown@4.0
Codec ID : V_MPEG4/ISO/AVC
Duration : 1h 20mn
Bit rate : 5 777 Kbps
Width : 1 920 pixels
Height : 1 080 pixels
Display aspect ratio : 16:9
Frame rate : 50.000 fps
Original frame rate : 25.000 fps
Standard : Component
Color space : YUV
Chroma subsampling : 4:2:0
Bit depth : 8 bits
Scan type : Interlaced
Scan order : Top Field First
Bits/(Pixel*Frame) : 0.056
Stream size : 3.26 GiB (92%)
Title : Турне миллионера_HDTV1080i
Color primaries : BT.709-5, BT.1361, IEC 61966-2-4, SMPTE RP177
Transfer characteristics : BT.709-5, BT.1361
Matrix coefficients : BT.709-5, BT.1361, IEC 61966-2-4 709, SMPTE RP177
Audio #1
ID : 2
Format : AC-3
Format/Info : Audio Coding 3
Mode extension : CM (complete main)
Codec ID : A_AC3
Duration : 1h 20mn
Bit rate mode : Constant
Bit rate : 192 Kbps
Channel(s) : 2 channels
Channel positions : Front: L R
Sampling rate : 48.0 KHz
Bit depth : 16 bits
Stream size : 111 MiB (3%)
Title : Турне миллионера AC3 rus
Audio #2
ID : 3
Format : AC-3
Format/Info : Audio Coding 3
Mode extension : CM (complete main)
Codec ID : A_AC3
Duration : 1h 20mn
Bit rate mode : Constant
Bit rate : 192 Kbps
Channel(s) : 2 channels
Channel positions : Front: L R
Sampling rate : 48.0 KHz
Bit depth : 16 bits
Stream size : 111 MiB (3%)
Title : Турне миллионера AC3 eng
Text
ID : 4
Format : UTF-8
Codec ID : S_TEXT/UTF8
Codec ID/Info : UTF-8 Plain Text
Title : Турне миллионера

Скриншот с названием фильма

Скриншоты

Показать сообщения:    

Текущее время: Сегодня 11:03

Часовой пояс: GMT



Вы не можете начинать темы
Вы не можете отвечать на сообщения
Вы не можете редактировать свои сообщения
Вы не можете удалять свои сообщения
Вы не можете голосовать в опросах
Вы не можете прикреплять файлы к сообщениям
Вы не можете скачивать файлы
Наши партнеры: интернет магазин Ивановского трикотажа textilla.ru