Турбулентность / Turbulence (Роберт Батлер / Robert Butler) [1997, Боевик, триллер, HDTVRip 720p] MVO СТС Sub rus + original eng :: Ивановский Торрент трекер
Важное объявление!
У Нас Все раздачи мультитрекерные, при нуле пиров в релизах, можете смело вставать на закачку!
Статистика раздачи
Размер:     |    Зарегистрирован:     |    Скачан:     |   
Нет
 
     
 
 
Автор Сообщение

HUNTER

Стаж:
4 года 11 месяцев
Сообщений:
66054

Репутация: 101

[+] [-]
Вне форума [Профиль] [ЛС]

Турбулентность / Turbulence
Страна: США
Студия: MGM
Жанр: Боевик, триллер
Год выпуска: 1997
Продолжительность: 01:40:56
Перевод: Профессиональный (многоголосый закадровый), СТС
Cубтитры: Русские
Оригинальная аудиодорожка: английский
Режиссер: Роберт Батлер / Robert Butler
В ролях: Рэй Лиотта, Лорен Холли, Брендан Глисон, Гектор Элизондо, Рейчел Тикотин, Джеффри ДеМунн, Джон Финн, Бен Кросс, Кэтрин Хикс, Хайди Клинг
Описание: Насильник и убийца Райан Уивер попадает в руки полиции. Его вместе с другим бандитом по имени Стаббс решают переправить в лос — анджелесскую тюрьму. Неожиданно во время полета Стаббс делает попытку захватить самолет. Почувствовав свой шанс, Райан перехватывает инициативу. Ситуация выходит из-под контроля. Дальнейшее развитие событий на борту вынуждает наземные службы поставить вопрос об уничтожении самолета.
Тип релиза: HDTVRip 720p
Контейнер: MKV
Видео: x264, 1280x540, 23,976 fps, 5,382 Mbps
Аудио 1: Russian / Многоголосый закадровый СТС, AC3, 2.0, 48 kHz, 192 kbps
Аудио 2: English / Original, AC3, 2.0, 48 kHz, 384 kbps
Формат субтитров: softsub (SRT)

MediaInfo

General
Unique ID : 202420893208180193264726773257463931179 (0x9848D890D4617DD8AA758199BD24212B)
Complete name : Turbulence.1997.x264.HDTVRip.720p.mkv
Format : Matroska
File size : 4.20 GiB
Duration : 1h 40mn
Overall bit rate : 5 960 Kbps
Encoded date : UTC 2011-04-28 04:47:48
Writing application : mkvmerge v4.5.0 ('Speed of Light') built on Feb 1 2011 02:10:32
Writing library : libebml v1.2.0 + libmatroska v1.1.0
Video
ID : 1
Format : AVC
Format/Info : Advanced Video Codec
Format profile : [url=mailto:High@L4.1]High@L4.1[/url]
Format settings, CABAC : Yes
Format settings, ReFrames : 9 frames
Format settings, GOP : M=1, N=4
Codec ID : V_MPEG4/ISO/AVC
Duration : 1h 40mn
Bit rate : 5 382 Kbps
Width : 1 280 pixels
Height : 540 pixels
Display aspect ratio : 2.35:1
Frame rate : 23.976 fps
Color space : YUV
Chroma subsampling : 4:2:0
Bit depth : 8 bits
Scan type : Progressive
Bits/(Pixel*Frame) : 0.325
Stream size : 3.71 GiB (88%)
Writing library : x264 core 114 r1924 08d04a4
Encoding settings : cabac=1 / ref=9 / deblock=1:-3:-3 / analyse=0x3:0x133 / me=umh / subme=9 / psy=1 / psy_rd=1.00:0.00 / mixed_ref=1 / me_range=24 / chroma_me=1 / trellis=2 / 8x8dct=1 / cqm=0 / deadzone=21,11 / fast_pskip=1 / chroma_qp_offset=-2 / threads=12 / sliced_threads=0 / nr=0 / decimate=1 / interlaced=0 / constrained_intra=0 / bframes=3 / b_pyramid=2 / b_adapt=2 / b_bias=0 / direct=3 / weightb=1 / open_gop=0 / weightp=2 / keyint=250 / keyint_min=23 / scenecut=40 / intra_refresh=0 / rc_lookahead=60 / rc=2pass / mbtree=1 / bitrate=5382 / ratetol=1.0 / qcomp=0.60 / qpmin=10 / qpmax=51 / qpstep=4 / cplxblur=20.0 / qblur=0.5 / vbv_maxrate=50000 / vbv_bufsize=62500 / nal_hrd=none / ip_ratio=1.40 / aq=1:1.00
Language : English
Color primaries : BT.709-5, BT.1361, IEC 61966-2-4, SMPTE RP177
Transfer characteristics : BT.709-5, BT.1361
Matrix coefficients : BT.709-5, BT.1361, IEC 61966-2-4 709, SMPTE RP177
Audio #1
ID : 2
Format : AC-3
Format/Info : Audio Coding 3
Mode extension : CM (complete main)
Codec ID : A_AC3
Duration : 1h 40mn
Bit rate mode : Constant
Bit rate : 192 Kbps
Channel(s) : 2 channels
Channel positions : Front: L R
Sampling rate : 48.0 KHz
Bit depth : 16 bits
Compression mode : Lossy
Stream size : 139 MiB (3%)
Language : Russian
Audio #2
ID : 3
Format : AC-3
Format/Info : Audio Coding 3
Mode extension : CM (complete main)
Codec ID : A_AC3
Duration : 1h 40mn
Bit rate mode : Constant
Bit rate : 384 Kbps
Channel(s) : 6 channels
Channel positions : Front: L C R, Side: L R, LFE
Sampling rate : 48.0 KHz
Bit depth : 16 bits
Compression mode : Lossy
Stream size : 277 MiB (6%)
Language : English
Text #1
ID : 4
Format : UTF-8
Codec ID : S_TEXT/UTF8
Codec ID/Info : UTF-8 Plain Text
Language : Russian
Text #2
ID : 5
Format : UTF-8
Codec ID : S_TEXT/UTF8
Codec ID/Info : UTF-8 Plain Text
Language : English

x264 Log

---[NoImage] avs [info]: 1280x540p 1:1 @ 24000/1001 fps (cfr)
---[NoImage] x264 [info]: using SAR=1/1
---[NoImage] x264 [info]: using cpu capabilities: MMX2 SSE2Fast SSSE3 FastShuffle SSE4.2
---[NoImage] x264 [warning]: direct=auto not used on the first pass
---[NoImage] x264 [info]: profile High, level 4.1
---[NoImage]
---[NoImage] x264 [info]: frame I:1344 Avg QP:17.57 size: 69722
---[NoImage] x264 [info]: frame P:46051 Avg QP:18.53 size: 36933
---[NoImage] x264 [info]: frame B:97817 Avg QP:19.79 size: 23313
---[NoImage] x264 [info]: consecutive B-frames: 5.1% 7.8% 22.3% 64.8%
---[NoImage] x264 [info]: mb I I16..4: 5.7% 84.3% 10.0%
---[NoImage] x264 [info]: mb P I16..4: 2.2% 17.7% 1.3% P16..4: 48.0% 24.7% 3.7% 0.2% 0.1% skip: 2.0%
---[NoImage] x264 [info]: mb B I16..4: 0.2% 3.1% 0.2% B16..8: 53.9% 19.0% 5.1% direct: 7.5% skip:10.9% L0:42.3% L1:47.2% BI:10.5%
---[NoImage] x264 [info]: 8x8 transform intra:84.6% inter:69.0%
---[NoImage] x264 [info]: direct mvs spatial:24.1% temporal:75.9%
---[NoImage] x264 [info]: coded y,uvDC,uvAC intra: 88.5% 84.7% 53.9% inter: 55.1% 48.7% 4.5%
---[NoImage] x264 [info]: i16 v,h,dc,p: 41% 17% 9% 34%
---[NoImage] x264 [info]: i8 v,h,dc,ddl,ddr,vr,hd,vl,hu: 7% 6% 5% 11% 16% 15% 14% 13% 13%
---[NoImage] x264 [info]: i4 v,h,dc,ddl,ddr,vr,hd,vl,hu: 10% 6% 3% 10% 15% 15% 14% 13% 14%
---[NoImage] x264 [info]: i8c dc,h,v,p: 37% 25% 19% 18%
---[NoImage] x264 [info]: Weighted P-Frames: Y:6.7% UV:4.7%
---[NoImage] x264 [info]: ref P L0: 43.6% 9.3% 14.9% 9.2% 5.9% 5.7% 4.1% 3.4% 2.7% 1.1% 0.1%
---[NoImage] x264 [info]: ref B L0: 74.8% 10.9% 5.7% 2.8% 2.2% 1.7% 1.4% 0.5%
---[NoImage] x264 [info]: ref B L1: 92.6% 7.4%
---[NoImage] x264 [info]: kb/s:5382.44
---[NoImage] encoded 145212 frames, 5.65 fps, 5382.44 kb/s

Скриншоты





_________________
Показать сообщения:    

Текущее время: Сегодня 07:00

Часовой пояс: GMT



Вы не можете начинать темы
Вы не можете отвечать на сообщения
Вы не можете редактировать свои сообщения
Вы не можете удалять свои сообщения
Вы не можете голосовать в опросах
Вы не можете прикреплять файлы к сообщениям
Вы не можете скачивать файлы