Ивановский Торрент трекер
Яндекс.Погода
 

[Цитировать]
HUNTER

Туз в рукаве / Ace in the Hole- Год выпуска: 1951
Страна: США
Жанр: драма, фильм-нуар
Продолжительность: 01:51:14
Перевод: Профессиональный (многоголосый закадровый) СТС
Оригинальная аудиодорожка: Английская
Cубтитры: Русские (JinSem), английские (полные, для слабослышащих)-Режиссер: Билли Уайлдер / Billy Wilder
В ролях: Кирк Дуглас, Джен Стерлинг, Роберт Артур, Портер Холл, Фрэнк Кэди, Ричард Бенедикт, Рэй Тил, Льюис Мартин, Джон Беркс, Фрэнсис Домингез-Описание:
Журналист Чарльз Тэйтум, работавший ранее на крупную нью-йоркскую газету, вынужден из-за своего пьянства сменить место работы и перебирается в глухую провинцию. Он надеется дать новый старт своей карьере, однако, в течение целого года не может найти достойную тему. Однажды он узнает, что неподалеку некий Лео Миноза застрял в старой индейской шахте и не может оттуда выбраться. Чарльз решает, что это именно то, что он так долго искал, и начинает раздувать из этой истории большую сенсацию…-За дорожку спасибо Diablo.
| IMDb | Сэмпл-Качество: BDRemux 1080p (Ace.In.The.Hole.1951.COMPLETE.BLURAY-LAZERS)
Контейнер: MKV
Видео: 1920x1080 (1.37:1), 23.976 fps, 32894 kbps
Аудио 1: Русский AC3 1.0, 48 kHz, 128 kbps
Аудио 2: Английский DTS-HD MA 1.0, 48 kHz, 1031 kbps, 24-bit (DTS Core: 1.0, 48 kHz, 768 kbps, 24-bit)
Аудио 3: Английский AC3 1.0, 48 kHz, 192 kbps — Комментарии
Формат субтитров: softsub (SRT)
СкриншотыMI
General
Unique ID : 208630034251670625426959115094769783950 (0x9CF4AEDAD1280D7EA419AF7D417FD48E)
Complete name : Ace.in.the.Hole.1951.1080p.Remux.mkv
Format : Matroska
Format version : Version 2
File size : 26.6 GiB
Duration : 1h 51mn
Overall bit rate mode : Variable
Overall bit rate : 34.3 Mbps
Movie name : Ace in the Hole / Туз в рукаве (1951) – RuTracker
Encoded date : UTC 2014-05-08 19:54:10
Writing application : mkvmerge v6.1.0 ('Old Devil') built on Mar 2 2013 14:32:37
Writing library : libebml v1.3.0 + libmatroska v1.4.0
Attachment : Yes
Video
ID : 1
Format : AVC
Format/Info : Advanced Video Codec
Format profile : High@L4.1
Format settings, CABAC : Yes
Format settings, ReFrames : 4 frames
Codec ID : V_MPEG4/ISO/AVC
Duration : 1h 51mn
Bit rate mode : Variable
Maximum bit rate : 37.0 Mbps
Width : 1 920 pixels
Height : 1 080 pixels
Display aspect ratio : 16:9
Frame rate mode : Constant
Frame rate : 23.976 fps
Color space : YUV
Chroma subsampling : 4:2:0
Bit depth : 8 bits
Scan type : Progressive
Title : Ace.In.The.Hole.1951.CC.COMPLETE.BLURAY-LAZERS
Language : English
Default : Yes
Forced : No
Audio #1
ID : 2
Format : AC-3
Format/Info : Audio Coding 3
Mode extension : CM (complete main)
Format settings, Endianness : Big
Codec ID : A_AC3
Duration : 1h 51mn
Bit rate mode : Constant
Bit rate : 128 Kbps
Channel(s) : 1 channel
Channel positions : Front: C
Sampling rate : 48.0 KHz
Bit depth : 16 bits
Compression mode : Lossy
Stream size : 102 MiB (0%)
Title : MVO – СТС
Language : Russian
Default : Yes
Forced : No
Audio #2
ID : 3
Format : DTS
Format/Info : Digital Theater Systems
Format profile : MA / Core
Mode : 16
Format settings, Endianness : Big
Codec ID : A_DTS
Duration : 1h 51mn
Bit rate mode : Variable
Bit rate : Unknown / 768 Kbps
Channel(s) : 1 channel
Channel positions : Front: C
Sampling rate : 48.0 KHz
Bit depth : 24 bits
Compression mode : Lossless / Lossy
Title : Original
Language : English
Default : No
Forced : No
Audio #3
ID : 4
Format : AC-3
Format/Info : Audio Coding 3
Mode extension : CM (complete main)
Format settings, Endianness : Big
Codec ID : A_AC3
Duration : 1h 51mn
Bit rate mode : Constant
Bit rate : 192 Kbps
Channel(s) : 1 channel
Channel positions : Front: C
Sampling rate : 48.0 KHz
Bit depth : 16 bits
Compression mode : Lossy
Stream size : 153 MiB (1%)
Title : Commentary by film scholar Neil Sinyard
Language : English
Default : No
Forced : No
Text #1
ID : 5
Format : UTF-8
Codec ID : S_TEXT/UTF8
Codec ID/Info : UTF-8 Plain Text
Title : JinSem
Language : Russian
Default : No
Forced : No
Text #2
ID : 6
Format : UTF-8
Codec ID : S_TEXT/UTF8
Codec ID/Info : UTF-8 Plain Text
Language : English
Default : No
Forced : No
Text #3
ID : 7
Format : UTF-8
Codec ID : S_TEXT/UTF8
Codec ID/Info : UTF-8 Plain Text
Title : SDH
Language : English
Default : No
Forced : No
Menu
00:00:00.000 : en:01. Arrival in Albuquerque
00:04:07.622 : en:02. "Where's my desk?"
00:07:37.457 : en:03. A life sentence
00:12:08.478 : en:04. "Good news is no news"
00:16:17.101 : en:05. Human interest
00:23:24.945 : en:06. Leo
00:30:37.294 : en:07. "Forget the rattlesnakes"
00:35:14.404 : en:08. Lorraine wants out
00:39:28.825 : en:09. Mr. and Mrs. America
00:43:15.176 : en:10. "Everybody likes a break"
00:46:44.677 : en:11. An ace in the hole
00:52:42.034 : en:12. Twenty minutes
00:55:00.506 : en:13. A new community
01:00:01.932 : en:14. The gentlemen of the press
01:03:25.385 : en:15. From the top
01:05:53.241 : en:16. Leo suffers as the carnival arrives
01:10:21.926 : en:17. Accusations from Boot
01:14:47.149 : en:18. Rounding third
01:17:12.878 : en:19. A song for Leo
01:20:26.905 : en:20. A turn for the worse
01:25:45.974 : en:21. Out of options
01:29:23.108 : en:22. The present
01:34:46.055 : en:23. Last rites
01:39:55.531 : en:24. The circus is over
01:44:07.283 : en:25. A Tatum special
01:48:50.107 : en:26. "For nothing"


Показать сообщения:    

Текущее время: 16-Дек 14:56

Часовой пояс: UTC ± 0


Вы не можете начинать темы
Вы не можете отвечать на сообщения
Вы не можете редактировать свои сообщения
Вы не можете удалять свои сообщения
Вы не можете голосовать в опросах
Вы не можете прикреплять файлы к сообщениям
Вы не можете скачивать файлы

!ВНИМАНИЕ!
Сайт не предоставляет электронные версии произведений, а занимается лишь коллекционированием и каталогизацией ссылок, присылаемых и публикуемых на форуме нашими читателями. Если вы являетесь правообладателем какого-либо представленного материала и не желаете, чтобы ссылка на него находилась в нашем каталоге, свяжитесь с нами, и мы незамедлительно удалим ее. Файлы для обмена на трекере предоставлены пользователями сайта, и администрация не несет ответственности за их содержание. Просьба не заливать файлы, защищенные авторскими правами, а также файлы нелегального содержания!