Важное объявление!
У Нас Все раздачи мультитрекерные, при нуле пиров в релизах, можете смело вставать на закачку!
 
Автор Сообщение

HUNTER

Стаж:
4 года 6 месяцев
Сообщений:
60975

Репутация: 101

[+] [-]
Вне форума [Профиль] [ЛС]

ТРОН: Восстание
TRON: Uprising
-
-- Торрент-файл обновлен! -[Заменены эпизоды: 1 - 11] + [Добавлены эпизоды: 12 - 19]- В контейнер добавлены: • двухголосая озвучка (LE-Production) • русские и английские субтитры. --
Год выпуска: 2012
Страна: США/Walt Disney Television Animation / Sean Bailey Productions
Жанр: Приключения, Фантастика, Экшн, Боевик
Продолжительность: 1 x ~32 мин., 10 x ~22 мин
Перевод:
Профессиональный (дублированный)[Канал Disney]
Любительский (двухголосый)[LE-Production]
Субтитры:русские (полные), английские (полные)-Режиссер: Чарли Бин
Роли озвучивали: Элайджа Вуд, Брюс Бокслайтнер, Лэнс Хенриксен, Пол Рубенс, Эммануэль Шрики, Тришиа Хелфер, Натан Кордри, Реджинальд ВелДжонсон, Мэнди Мур, Чарли Бин, Элизабет Хо, Сэм Ригел, Кейт Силверштейн, Меган Холавэй, Дональд Фэйсон, Пол Шеер, Фред Татаскьор, Лэнс Реддик, Кейт Мара, Джон Гловер, Оливия Уайлд, Крис Клейн и др.-Описание: Действие "Восстания" происходит между фильмами "Трон" 1982 года и его сиквелом, "Трон: Наследие" вышедшем в 2010. Он расскажет, что произошло в Сети после победы Трона и Флина над Мастер-контролем и до пришествия в сеть сына Флина, Сэма. Когда Клу предает своего создателя, а Трон пропадает, юная программа по имени Бек принимает ношу имени "Трон" и становится защитником своего города и Сети.
Скрытый внутри компьютера, существует другой мир. Его создатель - Кевин Флинн придумал его для игр но, он стал нечто большим. Он назвал этот мир Системой – цифровая утопия с безграничными возможностями. Также Флинн создал цифровую копию себя по имени Клу, чтобы тот помогал совершенствовать систему. А из прежней системы он взял с собой героя по имени Трон – защитник свободы всех программ. Но возжелав власти – Клу предал своего создателя. Трон сопротивлялся ему, но Клу был слишком силен и убил Трона. Придя к власти - Клу посылает свою армию во все уголки Системы, чтобы установить свой порядок, уничтожая или захватывая в плен всех, кто встаёт на его пути.
И теперь на периферии Системы, молодая программа по имени Бек решает, что Клу нужно остановить. Станет ли он следующим Троном?
-Качество: [WEB-DL 1080p]
Формат: MKV
Видео кодек: H.264
Аудио кодек: AC3
Видео: 1916x1076 (16:9), 23.976 fps, ~5112 Kbps, 0.103 bit/pixel
Аудио:
Аудио #1: 48 kHz, AC3 Dolby Digital, 2ch, 192 Kbps | Russian | DUB
Аудио #2: 48 kHz, AC3 Dolby Digital, 6ch, 384 Kbps | Russian | DVO
Аудио #3: 48 kHz, AC3 Dolby Digital, 6ch, 384 Kbps | English | Original

Формат субтитров: softsub (SRT)-

Дополнительная информация


IMBD 8,1/10 (2 817 users)|КиноПоиск 7.83 (421)

Подробные технические данные

General
Unique ID : 242518014324162445852153613624939963295 (0xB6734544FE9CA1C5BD746F454224E39F)
Complete name : K:\Internet\TRON.Uprising.S01.WEB-DL.1080p.RUS\Tron.Uprising.S01E01.Becks.Beginning.WEB-DL.1080p.H264.2xRUS+ENG.-ANTipiGo.mkv
Format : Matroska
Format version : Version 2
File size : 1.39 GiB
Duration : 32mn 14s
Overall bit rate : 6 188 Kbps
Movie name : Трон: Восстание / Сезон: 1 / Эпизод: 01 - Начало Бека
Encoded date : UTC 2013-04-14 21:14:10
Writing application : mkvmerge v5.2.1 ('A Far Off Place') built on Jan 2 2012 23:21:10
Writing library : libebml v1.2.3 + libmatroska v1.3.0
Video
ID : 1
Format : AVC
Format/Info : Advanced Video Codec
Format profile : [url=mailto:High@L4.0]High@L4.0[/url]
Format settings, CABAC : Yes
Format settings, ReFrames : 4 frames
Codec ID : V_MPEG4/ISO/AVC
Duration : 32mn 14s
Bit rate : 5 105 Kbps
Width : 1 916 pixels
Height : 1 076 pixels
Display aspect ratio : 16:9
Frame rate mode : Constant
Frame rate : 23.976 fps
Color space : YUV
Chroma subsampling : 4:2:0
Bit depth : 8 bits
Scan type : Progressive
Bits/(Pixel*Frame) : 0.103
Stream size : 1.15 GiB (82%)
Language : English
Default : Yes
Forced : No
Color primaries : BT.709
Transfer characteristics : BT.709
Matrix coefficients : BT.709
Audio #1
ID : 2
Format : AC-3
Format/Info : Audio Coding 3
Mode extension : CM (complete main)
Format settings, Endianness : Big
Codec ID : A_AC3
Duration : 32mn 14s
Bit rate mode : Constant
Bit rate : 192 Kbps
Channel(s) : 2 channels
Channel positions : Front: L R
Sampling rate : 48.0 KHz
Bit depth : 16 bits
Compression mode : Lossy
Stream size : 44.3 MiB (3%)
Title : DUB (Канал Disney)
Language : Russian
Default : Yes
Forced : No
Audio #2
ID : 3
Format : AC-3
Format/Info : Audio Coding 3
Mode extension : CM (complete main)
Format settings, Endianness : Big
Codec ID : A_AC3
Duration : 32mn 14s
Bit rate mode : Constant
Bit rate : 384 Kbps
Channel(s) : 6 channels
Channel positions : Front: L C R, Side: L R, LFE
Sampling rate : 48.0 KHz
Bit depth : 16 bits
Compression mode : Lossy
Stream size : 88.6 MiB (6%)
Title : DVO (LE-Production)
Language : Russian
Default : No
Forced : No
Audio #3
ID : 4
Format : AC-3
Format/Info : Audio Coding 3
Mode extension : CM (complete main)
Format settings, Endianness : Big
Codec ID : A_AC3
Duration : 32mn 14s
Bit rate mode : Constant
Bit rate : 384 Kbps
Channel(s) : 6 channels
Channel positions : Front: L C R, Side: L R, LFE
Sampling rate : 48.0 KHz
Bit depth : 16 bits
Compression mode : Lossy
Stream size : 88.6 MiB (6%)
Title : Original
Language : English
Default : No
Forced : No
Text #1
ID : 5
Format : UTF-8
Codec ID : S_TEXT/UTF8
Codec ID/Info : UTF-8 Plain Text
Title : Full
Language : Russian
Default : No
Forced : No
Text #2
ID : 6
Format : UTF-8
Codec ID : S_TEXT/UTF8
Codec ID/Info : UTF-8 Plain Text
Title : Full
Language : English
Default : No
Forced : No

Скриншоты

-

Список серий

Эпизод: 01 «Начало Бека» (Beck’s Beginning)
Эпизод: 02 «Отступник. Часть 1» (The Renegade, Part 1)
Эпизод: 03 «Отступник. Часть 2» (The Renegade, Part 2)
Эпизод: 04 «Отключение» (Blackout)
Эпизод: 05 «Личность» (Identity)
Эпизод: 06 «ИЗОляция» (Isolated)
Эпизод: 07 «Цена силы» (Price of Power)
Эпизод: 08 «Награда» (Reward)
Эпизод: 09 «Шрамы. Часть 1» (Scars, Part 1)
Эпизод: 10 «Шрамы. Часть 2» (Scars, Part 2)
Эпизод: 11 «Под домашним арестом» (Grounded)
Эпизод: 12 «Мы оба знаем чем это кончится» (We Both Know How This)
Эпизод: 13 «Незнакомец» (The Stranger)
Эпизод: 14 «Помеченные» (Tagged)
Эпизод: 15 «Помешательство» (State of Mind)
Эпизод: 16 «Добро пожаловать домой» (Welcome Home)
Эпизод: 17 «Рандеву» (Rendezvous)
Эпизод: 18 «Без границ» (No Bounds)
Эпизод: 19 «Неизлечимый» (Terminal)

Обновление раздачи

Внимание! Раздача ведётся путём добавления новых серий
При каждом добавлении создаётся новый торрент. Чтобы начать докачку новой серии, пользователям необходимо сделать следующее:
1. Остановить скачивание,
2. Удалить старый торрент у себя из клиента (старые серии удалять не надо),
3. Скачать новый торрент и запустить его у себя в клиенте вместо старого, при этом указать клиенту путь в старую папку куда и должно происходить скачивание новых серий.
Ваш клиент при этом должен произвести хеширование (проверку) старой папки (если не производит сам - помогите ему сделать это), и будет докачивать только те серии которых у вас ещё нет. Старые серии при этом не удаляются, а продолжают раздаваться!
Если вы уже удалили старые серии, то предотвратить повторную закачку старых серий можно, отжав галочку в соответствующих местах при запуске нового торрента.

_________________
Показать сообщения:    

Текущее время: Сегодня 17:08

Часовой пояс: GMT



Вы не можете начинать темы
Вы не можете отвечать на сообщения
Вы не можете редактировать свои сообщения
Вы не можете удалять свои сообщения
Вы не можете голосовать в опросах
Вы не можете прикреплять файлы к сообщениям
Вы не можете скачивать файлы
Наши партнеры: интернет магазин Ивановского трикотажа textilla.ru