Важное объявление!
У Нас Все раздачи мультитрекерные, при нуле пиров в релизах, можете смело вставать на закачку!
 
Автор Сообщение

HUNTER

Стаж:
4 года 9 месяцев
Сообщений:
65013

Репутация: 101

[+] [-]
Вне форума [Профиль] [ЛС]

Тролль в центральном парке / A Troll in Central Park
Страна: Ирландия, США
Жанр: фэнтези, семейный
Продолжительность: 1:15:08
Год выпуска: 1994
Перевод 1: Профессиональный (дублированный) CPIG
Перевод 2: Авторский (одноголосый закадровый) Вартан Дохалов
Перевод 3: Профессиональный (дублированный) Варус Видео отдельным файлом
Русские субтитры: есть
Режиссёр: Дон Блат/Don Bluth, Гари Голдман/Gary Goldman
Роли озвучивали: Дом ДеЛуис, Клорис Личмен, Чарльз Нельсон Рейли, Джонатан Прайс, Хейли Миллз, Филлип Глассер, Тони Саншайн Гловер, Нил Росс, Уилл Райан, Пэт Мьюзик
Описание: Симпатичный герой фильма, Стенли,- тролль, но он совсем не такой, каким его обычно представляют. У него доброе сердце и наичудеснейший волшебный дар: зеленый большой палец, от прикосновения которого расцветают цветы.
Но злая королева, владычица Царства троллей, узнает о секрете Стенли и ссылает его подальше, где нет никакой зелени: в город Нью-Йорк! А там маленького героя ждет много небывалых приключений…
Доп. информация: На замену http://rutracker.org/forum/viewtopic.php?t=3681581
Перевод Дохалова с разадачи lokolard, перевод "Варус Видео" с оцифровки от Fikaloid.
Сэмпл: http://multi-up.com/1004237
Качество: DVDRip Исходник
Формат: AVI
Видео: 704x400 (1.76:1), 23.976 fps, XviD MPEG-4 ~1930 kbps avg, 0.29 bit/pixel
Аудио 1: 48 kHz, AC3 Dolby Digital, 3/2 (L,C,R,l,r) + LFE ch, ~448 kbps CPIG
Аудио 2: 48 kHz, AC3 Dolby Digital, 2/0 (L,R) ch, ~192 kbps Вартан Дохалов
Аудио 3: 48 kHz, AC3 Dolby Digital, 2/0 (L,R) Surround Encoded ch, ~192 kbps Eng
Аудио 4: 48 kHz, AC3 Dolby Digital, 2 ch, ~192.00 kbps Варус Видео отдельным файлом
Субтитры: русские, английские

Подробные технические данные

GeneralComplete name : C:A Troll in Central Park [Widescreen]\A Troll in Central Park.aviFormat : AVIFormat/Info : Audio Video InterleaveFile size : 1.46 GiBDuration : 1h 15mnOverall bit rate : 2 783 KbpsWriting application : VirtualDubMod 1.5.10.3 (build 2550/release)Writing library : VirtualDubMod build 2550/release
VideoID : 0Format : MPEG-4 VisualFormat profile : Advanced Simple@L5Format settings, BVOP : 1Format settings, QPel : NoFormat settings, GMC : No warppointsFormat settings, Matrix : CustomCodec ID : XVIDCodec ID/Hint : XviDDuration : 1h 15mnBit rate : 1 932 KbpsWidth : 704 pixelsHeight : 400 pixelsDisplay aspect ratio : 16:9Frame rate : 23.976 fpsColor space : YUVChroma subsampling : 4:2:0Bit depth : 8 bitsScan type : ProgressiveCompression mode : LossyBits/(Pixel*Frame) : 0.286Stream size : 1.01 GiB (69%)Writing library : XviD 73
Audio #1ID : 1Format : AC-3Format/Info : Audio Coding 3Mode extension : CM (complete main)Format settings, Endianness : BigCodec ID : 2000Duration : 1h 15mnBit rate mode : ConstantBit rate : 448 KbpsChannel(s) : 6 channelsChannel positions : Front: L C R, Side: L R, LFESampling rate : 48.0 KHzBit depth : 16 bitsCompression mode : LossyStream size : 241 MiB (16%)Alignment : Split accross interleavesInterleave, duration : 42 ms (1.00 video frame)Interleave, preload duration : 500 ms
Audio #2ID : 2Format : AC-3Format/Info : Audio Coding 3Mode extension : CM (complete main)Format settings, Endianness : BigCodec ID : 2000Duration : 1h 15mnBit rate mode : ConstantBit rate : 192 KbpsChannel(s) : 2 channelsChannel positions : Front: L RSampling rate : 48.0 KHzBit depth : 16 bitsCompression mode : LossyStream size : 103 MiB (7%)Alignment : Split accross interleavesInterleave, duration : 42 ms (1.00 video frame)Interleave, preload duration : 500 ms
Audio #3ID : 3Format : AC-3Format/Info : Audio Coding 3Format profile : Dolby DigitalMode extension : CM (complete main)Format settings, Endianness : BigCodec ID : 2000Duration : 1h 15mnBit rate mode : ConstantBit rate : 192 KbpsChannel(s) : 2 channelsChannel positions : Front: L RSampling rate : 48.0 KHzBit depth : 16 bitsCompression mode : LossyStream size : 103 MiB (7%)Alignment : Split accross interleavesInterleave, duration : 42 ms (1.00 video frame)Interleave, preload duration : 500 ms

Скриншоты


_________________
Показать сообщения:    

Текущее время: Сегодня 05:59

Часовой пояс: GMT



Вы не можете начинать темы
Вы не можете отвечать на сообщения
Вы не можете редактировать свои сообщения
Вы не можете удалять свои сообщения
Вы не можете голосовать в опросах
Вы не можете прикреплять файлы к сообщениям
Вы не можете скачивать файлы