Ивановский Торрент трекер
Яндекс.Погода
 

[Цитировать]
HUNTER

ТРОГАТЕЛЬНОЕ ЧУВСТВО | TOUCHY FEELY
Страна: США | Студия: Magnolia Pictures
Жанр: драма, комедия | Год выпуска: 2013
Продолжительность: 01:27:58
Перевод: Любительский (одноголосый закадровый) [humbert sound studio]*
Cубтитры: английские, русские*, французские
* - перевод: ayaleto, ulkoalex, JackieBrown, KillKick, CornBiscuit, Guven, Assepoester
Оригинальная аудиодорожка: английский
Режиссер: Линн Шелтон / Lynn Shelton
В ролях: Розмари ДеУитт, Джош Пэйс, Эллен Пейдж, Скут МакНэйри, Эллисон Дженни, Рон Ливингстон и др.
Описание: В то время, как дантист-неудачник открывает у себя дар исцелять одним прикосновением, его сестра-массажист внезапно терпит профессиональный крах из-за отвращения к телесному контакту.
Доп. информация: Исходник найден в сети. Вместо английских аудиокомментариев добавил русскую озвучку, вместо испанских субтитров - русские.
ПО: Subtitle Workshop, MaestroSBT, DVDSubEdit, PgcDemux, MuxMan, DVDRemakePro.
Бонусы: Outtakes, Deleted Scenes, Interview, Trailers
Меню: анимированное / озвученное
Скачать сэмпл
Тип релиза: DVD5 (Сжатый)
Контейнер: DVD-Video
Видео: NTSC 16:9 (720x480) VBR
Аудио 1: English (Dolby AC3, 6 ch) 448 kbps
Аудио 2: Russian (Dolby AC3, 2 ch) 224 kbps
Cубтитры: английские, русские, французские
-

DVDInfo

Title: Touchy Feely (2013) DVD5 Eng + VO + Subs + Bonuses
Size: 4.26 Gb ( 4 465 290 KBytes ) - DVD-5
Enabled regions: 1, 2, 3, 4, 5, 6
VTS_01 :
Play Length: 01:27:58
Video: NTSC 16:9 (720x480) VBR, Auto Letterboxed
Audio:
English (Dolby AC3, 6 ch)
Russian (Dolby AC3, 2 ch)
Subtitles:
English
Russian
Francais
VTS_02 :
Play Length: 00:00:01+00:00:10
Video: NTSC 16:9 (720x480) VBR, Auto Letterboxed
Audio:
English (Dolby AC3, 2 ch)
VTS_03 :
Play Length: 00:04:14+00:06:31+00:27:38+00:07:43+00:05:23+00:05:56+00:08:39+00:03:04+00:00:01
Video: NTSC 16:9 (720x480) VBR, Auto Letterboxed
Audio:
English (Dolby AC3, 2 ch)
VTS_04 :
Play Length: 00:00:01
Video: NTSC 16:9 (720x480) VBR, Auto Pan&Scan
VTS_05 :
Play Length: 00:09:19+00:02:20
Video: NTSC 16:9 (720x480) VBR, Auto Letterboxed
Audio:
English (Dolby AC3, 6 ch)
VTS_06 :
Play Length: 00:00:33
Video: NTSC 16:9 (720x480) VBR, Auto Letterboxed
Audio:
English (Dolby AC3, 2 ch)
Menu Video:
NTSC 16:9 (720x480) VBR
Auto Pan&Scan
Menu Subtitles:
Not specified
Menu English Language Unit :
Root Menu
Angle menu
Chapter (PTT) Menu

MediaInfo

General
Complete name : N:\Touchy Feely (2013) DVD5 Eng + VO + Subs + Bonuses\VIDEO_TS\VTS_01_1.VOB
Format : MPEG-PS
File size : 1 024 MiB
Duration : 32mn 34s
Overall bit rate mode : Variable
Overall bit rate : 4 395 Kbps
Video
ID : 224 (0xE0)
Format : MPEG Video
Format version : Version 2
Format profile : Main@Main
Format settings, BVOP : No
Format settings, Matrix : Custom
Format settings, GOP : Variable
Duration : 32mn 34s
Bit rate mode : Variable
Bit rate : 3 636 Kbps
Maximum bit rate : 9 800 Kbps
Width : 720 pixels
Height : 480 pixels
Display aspect ratio : 2.40:1
Frame rate : 29.970 fps
Standard : Component
Color space : YUV
Chroma subsampling : 4:2:0
Bit depth : 8 bits
Scan type : Progressive
Scan order : Top Field First
Compression mode : Lossy
Bits/(Pixel*Frame) : 0.351
Time code of first frame : 01:08:20:00
Time code source : Group of pictures header
Stream size : 847 MiB (83%)
Color primaries : BT.601 NTSC
Transfer characteristics : BT.601
Matrix coefficients : BT.601
Audio #1
ID : 189 (0xBD)-128 (0x80)
Format : AC-3
Format/Info : Audio Coding 3
Mode extension : CM (complete main)
Format settings, Endianness : Big
Muxing mode : DVD-Video
Duration : 32mn 34s
Bit rate mode : Constant
Bit rate : 448 Kbps
Channel count : 6 channels
Channel positions : Front: L C R, Side: L R, LFE
Sampling rate : 48.0 KHz
Bit depth : 16 bits
Compression mode : Lossy
Stream size : 104 MiB (10%)
Audio #2
ID : 189 (0xBD)-129 (0x81)
Format : AC-3
Format/Info : Audio Coding 3
Mode extension : CM (complete main)
Format settings, Endianness : Big
Muxing mode : DVD-Video
Duration : 32mn 34s
Bit rate mode : Constant
Bit rate : 224 Kbps
Channel count : 2 channels
Channel positions : Front: L R
Sampling rate : 48.0 KHz
Bit depth : 16 bits
Compression mode : Lossy
Stream size : 52.2 MiB (5%)
Text #1
ID : 189 (0xBD)-33 (0x21)
Format : RLE
Format/Info : Run-length encoding
Muxing mode : DVD-Video
Delay relative to video : 14s 981ms
Text #2
ID : 189 (0xBD)-32 (0x20)
Format : RLE
Format/Info : Run-length encoding
Muxing mode : DVD-Video
Text #3
ID : 189 (0xBD)-34 (0x22)
Format : RLE
Format/Info : Run-length encoding
Muxing mode : DVD-Video
Menu

Скриншоты меню

Скриншоты


Скриншоты доп. материалов

-Т.к. исходник - изначально поджатая коварными буржуями 9-ка R1 - со статусом "сомнительно" смирюсь заранее, -Восток / Группировка «Восток» / The East [2013, США, Великобритания, драма, криминал, DVD9] R2, MVO + DVO + Original Eng + Subs (rus, eng, fra, ger)
{Брит Марлинг + Александр Скарсгард + Эллен Пейдж}
Супер / Super [2010, США, боевик, драма, комедия, DVD9] R1, VO (Алексей Матвеев) + MVO (НТВ+) + Original Eng + Sub (eng, rus)
{в гл. ролях Рэйн Уилсон, Эллен Пейдж, Кевин Бейкон и Лив Тайлер}


Показать сообщения:    

Текущее время: 13-Дек 07:36

Часовой пояс: UTC ± 0


Вы не можете начинать темы
Вы не можете отвечать на сообщения
Вы не можете редактировать свои сообщения
Вы не можете удалять свои сообщения
Вы не можете голосовать в опросах
Вы не можете прикреплять файлы к сообщениям
Вы не можете скачивать файлы

!ВНИМАНИЕ!
Сайт не предоставляет электронные версии произведений, а занимается лишь коллекционированием и каталогизацией ссылок, присылаемых и публикуемых на форуме нашими читателями. Если вы являетесь правообладателем какого-либо представленного материала и не желаете, чтобы ссылка на него находилась в нашем каталоге, свяжитесь с нами, и мы незамедлительно удалим ее. Файлы для обмена на трекере предоставлены пользователями сайта, и администрация не несет ответственности за их содержание. Просьба не заливать файлы, защищенные авторскими правами, а также файлы нелегального содержания!