Важное объявление!
У Нас Все раздачи мультитрекерные, при нуле пиров в релизах, можете смело вставать на закачку!
 
Автор Сообщение

HUNTER

Стаж:
4 года 8 месяцев
Сообщений:
62044

Репутация: 101

[+] [-]
Вне форума [Профиль] [ЛС]

«Три соуса» / 6 выпусков из ???
Страна: Россия
Тематика: Кулинарное шоу
Тип раздаваемого материала: Видеоурок
Продолжительность: ~00:25:00
Год выпуска: 2013 - 2014
Язык: Русский
Перевод: Не требуется
Описание: Какой соус приготовить к куриным котлетам? Чем заправить овощной салат? К какому блюду подойдет вишневый соус с бадьяном?
Повар Константин Вагу знает о соусах ВСЕ!
Релиз:
Tarjaa

Содержание:
01. Три соуса к домашней котлете.
Перед домашними котлетами не устоит ни один гурман, если подать их с ароматным остреньким кетчупом, или с татарским соусом с эстрагоном, или с нежным соусом на основе сливок с грибами.
02.Три соуса к домашним сырникам.
Апельсиновый, сметанно-медовый с корицей, вишнёвый с бадьяном – три великолепных соуса, которые превратят обычные домашние сырники в настоящее лакомство!
03.Три соуса к куриной грудке.
Обычная куриная грудка может стать любимым блюдом, если попробовать её с тремя разными «по темпераменту» соусами. Сливочный с мятой и фенхелем, острый с чили и кусочками манго или пикантный с арахисом и зелёным яблоком.
04.Три соуса к овощному салату.
Сладко-острый бальзамический крем с горьким шоколадом, пикантная заправка с горчицей и мёдом и, наконец, лёгкий салатный майонез с соком лимона – это три варианта того, как улучшить вкус овощного салата.
05.Три соуса к пасте.
Три популярных соуса к пасте - карбонара, болоньезе и сливочный со шпинатом в этой программе представлены в авторской интерпретации повара Константина Вагу.
06.Три соуса к филе лосося.
Если соус терияки с имбирём и чесноком считается почти классикой для лосося, то мятно-лимонный может стать приятным вкусовым открытием, впрочем, как и белый соус с добавлением красной икры.
MediaInfo:
General
Complete name : Tri.couca.XviD.SATRip_Tarjaa\02.Три соуса к домашним сырникам..avi
Format : AVI
Format/Info : Audio Video Interleave
File size : 184 MiB
Duration : 15mn 24s
Overall bit rate : 1 672 Kbps
Writing application : VirtualDubMod 1.5.10.3 | www.virtualdub-fr.org || (build 2550/release)
Writing library : VirtualDubMod build 2550/release
Video
ID : 0
Format : MPEG-4 Visual
Format profile : Advanced Simple@L5
Format settings, BVOP : 1
Format settings, QPel : No
Format settings, GMC : No warppoints
Format settings, Matrix : Default (H.263)
Codec ID : XVID
Codec ID/Hint : XviD
Duration : 15mn 24s
Bit rate : 1 534 Kbps
Width : 720 pixels
Height : 400 pixels
Display aspect ratio : 16:9
Frame rate : 25.000 fps
Color space : YUV
Chroma subsampling : 4:2:0
Bit depth : 8 bits
Scan type : Progressive
Compression mode : Lossy
Bits/(Pixel*Frame) : 0.213
Stream size : 169 MiB (92%)
Writing library : XviD 1.2.1 (UTC 2008-12-04)
Audio
ID : 1
Format : MPEG Audio
Format version : Version 1
Format profile : Layer 3
Codec ID : 55
Codec ID/Hint : MP3
Duration : 15mn 23s
Bit rate mode : Constant
Bit rate : 128 Kbps
Channel count : 2 channels
Sampling rate : 48.0 KHz
Compression mode : Lossy
Stream size : 14.1 MiB (8%)
Alignment : Aligned on interleaves
Interleave, duration : 40 ms (1.00 video frame)
Interleave, preload duration : 504 ms
Writing library : LAME3.98r
Encoding settings : -m s -V 4 -q 2 -lowpass 17 -b 128
Качество: SATRip
Формат: AVI
Видео кодек: XviD
Аудио кодек: MP3
Видео: Xvid 720x400 25.00fps Bit rate:~ 1995 Kbps
Аудио: MPEG Audio Layer 3 48000Hz stereo 2 ch, ~ 128 Кбит/с [Stream 01]

Скриншоты


_________________
Показать сообщения:    

Текущее время: Сегодня 03:24

Часовой пояс: GMT



Вы не можете начинать темы
Вы не можете отвечать на сообщения
Вы не можете редактировать свои сообщения
Вы не можете удалять свои сообщения
Вы не можете голосовать в опросах
Вы не можете прикреплять файлы к сообщениям
Вы не можете скачивать файлы
Наши партнеры: интернет магазин Ивановского трикотажа textilla.ru