Важное объявление!
У Нас Все раздачи мультитрекерные, при нуле пиров в релизах, можете смело вставать на закачку!
 
Автор Сообщение

HUNTER

Стаж:
4 года 7 месяцев
Сообщений:
61531

Репутация: 101

[+] [-]
Вне форума [Профиль] [ЛС]

Три крестных отца / 3 крестных отца / 3 Godfathers
Страна: США
Жанр: драма, вестерн
Год выпуска: 1948
Продолжительность: 01:46:18
Перевод: Профессиональный (многоголосый закадровый)
Cубтитры: английские
Оригинальная аудиодорожка: английский
Режиссер: Джон Форд / John Ford
В ролях: Джон Уэйн, Педро Армендарис, Гарри Кэри мл., Уорд Бонд, Мэй Марш, Милдред Нэтвик, Джейн Дарвелл, Гай Кибби, Дороти Форд, Бен Джонсон
Описание: Три крепких парня Роберт Мармадьюк Хайтауэр, Педро Рока Фуэрте и Уильям Кирни грабят банк в городке Уэлком и пытаются уйти от погони через пустыню. Потеряв лошадей во время песчаной бури, они прибывают к колодцу Террапин Тэнкс, где застают рожающую женщину.
Родив ребенка, женщина умирает, а ее последними словами были мольбы о спасении младенца. Парни решаются доставить новорожденного в Новый Иерусалим. Опасное путешествие наводит бандитов на мысли о боге, религии и их предназначении на этой земле. Пройдя многие мили через песчаные холмы пустыни, до городка добирается только Хайтауэр. Шатаясь, он входит в город с младенцем на руках накануне Рождества. Шериф готов снять обвинения, если бандит откажется от прав на ребенка, но Хайтауэр решает по-своему…
Доп. информация:


За русскую дорожку спасибо tanda2007 и MiG@s
Сэмпл: http://sendfile.su/1022347
Тип релиза: WEB-DL 720p
Контейнер: MKV
Видео: AVC, 982x720, L3.1, 23.976fps, 4066kbps
Аудио 1: Russian: AC3, 48000Hz, 2ch, 192kbps
Аудио 2: English: AC3, 48000Hz, 1ch, 192kbps - DVD
Аудио 3: English: AAC, 48000Hz, 2ch, 113kbps - WEB-DL
Формат субтитров: softsub (SRT)

MediaInfo

Общее
Уникальный идентификатор : 232954967341350276102825214108054772867 (0xAF417EA69A20ADA096A6FC638A96DC83)
Полное имя : T:\Три крестных отца (3 Godfathers) (WEB-DL 720p).mkv
Формат : Matroska
Версия формата : Version 4 / Version 2
Размер файла : 3,39 Гбайт
Продолжительность : 1 ч. 46 м.
Общий поток : 4562 Кбит/сек
Дата кодирования : UTC 2014-09-13 10:23:06
Программа кодирования : mkvmerge v6.9.1 ('Blue Panther') 64bit built on Apr 18 2014 18:23:38
Библиотека кодирования : libebml v1.3.0 + libmatroska v1.4.1
Видео
Идентификатор : 1
Формат : AVC
Формат/Информация : Advanced Video Codec
Профиль формата : High@L3.1
Параметр CABAC формата : Нет
Параметр ReFrames формата : 2 кадра
Идентификатор кодека : V_MPEG4/ISO/AVC
Продолжительность : 1 ч. 46 м.
Ширина : 982 пикселя
Высота : 720 пикселей
Соотношение сторон : 4:3
Режим частоты кадров : Постоянный
Частота кадров : 23,976 кадра/сек
Цветовое пространство : YUV
Субдискретизация насыщенности : 4:2:0
Битовая глубина : 8 бит
Тип развёртки : Прогрессивная
Язык : English
Default : Да
Forced : Нет
Основные цвета : BT.709
Характеристики трансфера : BT.709
Коэффициенты матрицы : BT.709
Аудио #1
Идентификатор : 2
Формат : AC-3
Формат/Информация : Audio Coding 3
Расширение режима : CM (complete main)
Параметр Endianness формата : Big
Идентификатор кодека : A_AC3
Продолжительность : 1 ч. 46 м.
Вид битрейта : Постоянный
Битрейт : 192 Кбит/сек
Каналы : 2 канала
Расположение каналов : Front: L R
Частота : 48,0 КГц
Битовая глубина : 16 бит
Метод сжатия : С потерями
Размер потока : 146 Мбайт (4%)
Язык : Russian
Default : Да
Forced : Нет
Аудио #2
Идентификатор : 3
Формат : AC-3
Формат/Информация : Audio Coding 3
Расширение режима : CM (complete main)
Параметр Endianness формата : Big
Идентификатор кодека : A_AC3
Продолжительность : 1 ч. 46 м.
Вид битрейта : Постоянный
Битрейт : 192 Кбит/сек
Каналы : 1 канал
Расположение каналов : Front: C
Частота : 48,0 КГц
Битовая глубина : 16 бит
Метод сжатия : С потерями
Размер потока : 146 Мбайт (4%)
Заголовок : DVD
Язык : English
Default : Нет
Forced : Нет
Аудио #3
Идентификатор : 4
Формат : AAC
Формат/Информация : Advanced Audio Codec
Профиль формата : LC
Идентификатор кодека : A_AAC
Продолжительность : 1 ч. 46 м.
Каналы : 2 канала
Расположение каналов : Front: L R
Частота : 48,0 КГц
Метод сжатия : С потерями
Заголовок : WEB-DL
Язык : English
Default : Нет
Forced : Нет
Текст
Идентификатор : 5
Формат : UTF-8
Идентификатор кодека : S_TEXT/UTF8
Идентификатор кодека/Информация : UTF-8 Plain Text
Язык : English
Default : Нет
Forced : Нет
Меню
00:00:00.000 : en:Credits And Dedication
00:03:07.000 : en:Ain't Backing Down
00:05:27.000 : en:The Sweets
00:09:24.000 : en:A Little Bank Robbery
00:12:57.000 : en:Escape Into The Desert
00:16:53.000 : en:More Deputies, Less Water
00:19:51.000 : en:No Tanks
00:23:06.000 : en:Heading Northeast
00:26:23.000 : en:Windstorm
00:29:47.000 : en:No Horses
00:31:54.000 : en:Miss Florie's Guests
00:34:17.000 : en:A Woman Alone
00:38:59.000 : en:Mother's Helper
00:43:25.000 : en:Godfathers
00:48:47.000 : en:Change Of Plan
00:52:34.000 : en:For Baby
00:56:10.000 : en:Doctor's Advice
01:00:22.000 : en:Lullaby
01:04:43.000 : en:To Jerusalem
01:11:23.000 : en:$150 Dead
01:16:01.000 : en:Dying Prayer
01:23:01.000 : en:Pedro's Fall
01:27:00.000 : en:End Of The Water
01:30:51.000 : en:End Of The Trail
01:34:03.000 : en:As The Book Said
01:35:54.000 : en:Christmas Arrivals
01:38:13.000 : en:Extenuating Circumstances
01:43:38.000 : en:Godfather's Sendoff

Скриншоты


_________________
Показать сообщения:    

Текущее время: Сегодня 09:09

Часовой пояс: GMT



Вы не можете начинать темы
Вы не можете отвечать на сообщения
Вы не можете редактировать свои сообщения
Вы не можете удалять свои сообщения
Вы не можете голосовать в опросах
Вы не можете прикреплять файлы к сообщениям
Вы не можете скачивать файлы
Наши партнеры: интернет магазин Ивановского трикотажа textilla.ru