Важное объявление!
У Нас Все раздачи мультитрекерные, при нуле пиров в релизах, можете смело вставать на закачку!
 
Автор Сообщение

HUNTER

Стаж:
4 года 8 месяцев
Сообщений:
61998

Репутация: 101

[+] [-]
Вне форума [Профиль] [ЛС]

Три богатыря: Ход конем
-
Страна: Россия
Год выпуска: 2014
Жанр: мультфильм, комедия, приключения, фэнтези
Продолжительность: 01:14:42
Перевод: Не требуется | Лицензия
Субтитры: Нет-Режиссер: Константин Феоктистов-В ролях: Сергей Маковецкий (князь Киевский, озвучка), Дмитрий Высоцкий (конь Юлий, озвучка), Дмитрий Нагиев (дуб, озвучка), Олег Куликович (Алеша Попович, озвучка), Валерий Соловьев (Добрыня Никитич, озвучка), Дмитрий Быковский-Ромашов (Илья Муромец, озвучка), Гоша Куценко (Потаня, озвучка), Наргиз Закирова (цыганка, озвучка), Анатолий Петров (Тихон, озвучка), Лия Медведева (Любава, озвучка), Мария Цветкова-Овсянникова (Алёнушка, озвучка), Елена Шульман (Настасья, озвучка)-Описание:
Придворный конь Гай Юлий Цезарь на свою беду подслушивает разговор бояр и узнает о заговоре против князя. Что же делать? Защитить-то князя некому! Богатыри далеко - ловят разбойника Потаню, Горыныч в отпуске, войско на учениях... Но если плохие парни собираются захватить мир, то кому-то же надо его спасти? Кто же он, настоящий герой, который придет на помощь? Конечно, конь Юлий! Настоящий стратег и «великий комбинатор». Он непременно всех спасет, а если не спасет, то хотя бы постарается. Главное, чтобы операция по спасению мира не обернулась полной катастрофой.-Рейтинг:
-Качество видео: HDRip
Формат видео: AVI
Видео: XviD, 720x384 (1.875), 2161 kbps, 24 fps, 0,326 bpp
Аудио: AC3 / 5.1 / 48 kHz / 448 kbps / 16 bit- -

ОтчетМедиаИнфо

Код:
General
Complete name                            : D:\Торенты\B0gat1r1.2014.O.HDRip.1400Mb.avi
Format                                   : AVI
Format/Info                              : Audio Video Interleave
File size                                : 1.37 GiB
Duration                                 : 1h 14mn
Overall bit rate                         : 2 619 Kbps
Writing application                      : VirtualDubMod 1.5.10.2 (build 2540/release)
Writing library                          : VirtualDubMod build 2540/release
Video
ID                                       : 0
Format                                   : MPEG-4 Visual
Format profile                           : Advanced Simple@L5
Format settings, BVOP                    : 2
Format settings, QPel                    : No
Format settings, GMC                     : No warppoints
Format settings, Matrix                  : Custom
Codec ID                                 : XVID
Codec ID/Hint                            : XviD
Duration                                 : 1h 14mn
Bit rate                                 : 2 162 Kbps
Width                                    : 720 pixels
Height                                   : 384 pixels
Display aspect ratio                     : 1.875
Frame rate                               : 24.000 fps
Color space                              : YUV
Chroma subsampling                       : 4:2:0
Bit depth                                : 8 bits
Scan type                                : Progressive
Compression mode                         : Lossy
Bits/(Pixel*Frame)                       : 0.326
Stream size                              : 1.13 GiB (83%)
Writing library                          : XviD 1.2.1 (UTC 2008-12-04)
Audio
ID                                       : 1
Format                                   : AC-3
Format/Info                              : Audio Coding 3
Mode extension                           : CM (complete main)
Codec ID                                 : 2000
Duration                                 : 1h 14mn
Bit rate mode                            : Constant
Bit rate                                 : 448 Kbps
Channel(s)                               : 6 channels
Channel positions                        : Front: L C R, Side: L R, LFE
Sampling rate                            : 48.0 KHz
Bit depth                                : 16 bits
Compression mode                         : Lossy
Stream size                              : 239 MiB (17%)
Alignment                                : Split accross interleaves
Interleave, duration                     : 42 ms (1.00 video frame)
Interleave, preload duration             : 500 ms

Скриншоты


_________________
Показать сообщения:    

Текущее время: Сегодня 23:09

Часовой пояс: GMT



Вы не можете начинать темы
Вы не можете отвечать на сообщения
Вы не можете редактировать свои сообщения
Вы не можете удалять свои сообщения
Вы не можете голосовать в опросах
Вы не можете прикреплять файлы к сообщениям
Вы не можете скачивать файлы
Наши партнеры: интернет магазин Ивановского трикотажа textilla.ru