Важное объявление!
У Нас Все раздачи мультитрекерные, при нуле пиров в релизах, можете смело вставать на закачку!
 
Автор Сообщение

HUNTER

Стаж:
4 года 7 месяцев
Сообщений:
61614

Репутация: 101

[+] [-]
Вне форума [Профиль] [ЛС]

Три богатыря на дальних берегах
Страна: Россия
Жанр: мультфильм
Продолжительность: 01:11:18
Год выпуска: 2013
Перевод: Не требуется
Русские субтитры: нет
Режиссёр: Константин Феоктистов
Роли озвучивали: Николай Губенко, Иван Цехмистренко, Андрей Леонов, Алексей Колган, Александр Адабашьян, Георгий Данелия, Игорь Кваша, Вахтанг Кикабидзе, Галина Данелия-Юркова, Полина Кутепова
Описание: На этот раз Алеша Попович, Добрыня Никитич и Илья Муромец, благодаря козням коварной Бабы Яги, оказываются за семью морями на острове, на котором живут туземцы и страшный Гомума. В их отсутствие купец Колыван решают вместе с Бабой-Ягой захватить царство и забрать власть у князя Киевского. На помощь незадачливому правителю приходит конь Юлий, а также жены богатырей и их многочисленные родственники. Словом, богатырей и зрителей ждут приключения на дальних берегах, обыкновенные и невероятные.
Семпл: https://www.sendspace.com/file/wnbk73
Качество: BDRip 720p
Формат: MKV
Видео: AVC; 2486 Кбит/сек; 1280х720 (16:9); 23,976 кадра/сек
Аудио: AC-3; 448 Кбит/сек; 6 каналов; 48,0 КГц
Субтитры: Отсутствуют

Подробные технические данные

ОбщееУникальный идентификатор : 202939524247136172673966750429651575245 (0x98ACBB0CD7EE1C9E82EFAA6BCB3AA1CD)Полное имя : E:\закачки\На дальных берегах (rip) [rutracker.org].mkvФормат : MatroskaВерсия формата : Version 2Размер файла : 1,46 ГбайтПродолжительность : 1 ч. 11 м.Общий поток : 2936 Кбит/секНазвание фильма : -=POTROKS=-Дата кодирования : UTC 2013-01-31 05:53:58Программа кодирования : mkvmerge v5.7.0 ('The Whirlwind') built on Jul 8 2012 20:08:51Библиотека кодирования : libebml v1.2.3 + libmatroska v1.3.0
ВидеоИдентификатор : 1Формат : AVCФормат/Информация : Advanced Video CodecПрофиль формата : High@L4.1Параметр CABAC формата : ДаПараметр ReFrames формата : 7 кадровИдентификатор кодека : V_MPEG4/ISO/AVCПродолжительность : 1 ч. 11 м.Битрейт : 2486 Кбит/секШирина : 1280 пикселейВысота : 720 пикселейСоотношение сторон : 16:9Режим частоты кадров : ПостоянныйЧастота кадров : 23,976 кадра/секЦветовое пространство : YUVСубдискретизация насыщенности : 4:2:0Битовая глубина : 8 битТип развёртки : ПрогрессивнаяБит/(Пиксели*Кадры) : 0.113Размер потока : 1,21 Гбайт (83%)Заголовок : Три богатыря на дальних берегахБиблиотека кодирования : x264 core 128 r2216M 198a7eaНастройки программы : cabac=1 / ref=8 / deblock=1:-1:-1 / analyse=0x3:0x133 / me=umh / subme=11 / psy=1 / psy_rd=1.05:0.00 / mixed_ref=1 / me_range=32 / chroma_me=1 / trellis=2 / 8x8dct=1 / cqm=0 / deadzone=21,11 / fast_pskip=0 / chroma_qp_offset=-2 / threads=4 / lookahead_threads=1 / sliced_threads=0 / nr=0 / decimate=1 / interlaced=0 / bluray_compat=0 / constrained_intra=0 / bframes=9 / b_pyramid=1 / b_adapt=2 / b_bias=0 / direct=3 / weightb=1 / open_gop=1 / weightp=2 / keyint=240 / keyint_min=23 / scenecut=40 / intra_refresh=0 / rc_lookahead=150 / rc=2pass / mbtree=1 / bitrate=2486 / ratetol=1.0 / qcomp=0.70 / qpmin=0 / qpmax=69 / qpstep=4 / cplxblur=20.0 / qblur=0.5 / vbv_maxrate=50000 / vbv_bufsize=62500 / nal_hrd=none / ip_ratio=1.35 / aq=1:0.70Язык : RussianDefault : ДаForced : Нет
АудиоИдентификатор : 2Формат : AC-3Формат/Информация : Audio Coding 3Расширение режима : CM (complete main)Параметр Endianness формата : BigИдентификатор кодека : A_AC3Продолжительность : 1 ч. 11 м.Вид битрейта : ПостоянныйБитрейт : 448 Кбит/секКаналы : 6 каналовРасположение каналов : Front: L C R, Side: L R, LFEЧастота : 48,0 КГцБитовая глубина : 16 битМетод сжатия : С потерямиРазмер потока : 228 Мбайт (15%)Заголовок : DD 5.1 @ 448 kbpsЯзык : RussianDefault : ДаForced : Нет
Меню00:00:00.000 : :Chapter 0100:05:42.342 : :Chapter 0200:10:39.597 : :Chapter 0300:16:36.704 : :Chapter 0400:24:05.861 : :Chapter 0500:30:40.004 : :Chapter 0600:35:16.364 : :Chapter 0700:42:07.983 : :Chapter 0800:49:30.759 : :Chapter 0900:54:38.817 : :Chapter 1001:00:39.761 : :Chapter 1101:06:27.233 : :Chapter 1201:11:18.107 : :Chapter 13

Скриншоты


_________________
Показать сообщения:    

Текущее время: Сегодня 10:08

Часовой пояс: GMT



Вы не можете начинать темы
Вы не можете отвечать на сообщения
Вы не можете редактировать свои сообщения
Вы не можете удалять свои сообщения
Вы не можете голосовать в опросах
Вы не можете прикреплять файлы к сообщениям
Вы не можете скачивать файлы
Наши партнеры: интернет магазин Ивановского трикотажа textilla.ru