Три богатыря на дальних берегах (Константин Феоктистов) [2012, приключения, DVD5] :: Ивановский Торрент трекер
Важное объявление!
У Нас Все раздачи мультитрекерные, при нуле пиров в релизах, можете смело вставать на закачку!
Статистика раздачи
Размер:     |    Зарегистрирован:     |    Скачан:     |   
Нет
 
     
 
 
Автор Сообщение

HUNTER

Стаж:
4 года 11 месяцев
Сообщений:
66077

Репутация: 101

[+] [-]
Вне форума [Профиль] [ЛС]

Три богатыря на дальних берегах
Страна: Россия
Жанр: приключения
Продолжительность: 01:08:22
Год выпуска: 2012
Перевод: Не требуется
Русские субтитры: нет
Режиссёр: Константин Феоктистов
Роли озвучивали: Сергей Маковецкий, Елизавета Боярская, Фёдор Бондарчук, Дмитрий Быковский-Ромашов, Елена Шульман, Олег Куликович, Лия Медведева, Мария Цветкова, Дмитрий Высоцкий, Анатолий Петров, Наталья Данилова
Описание: Очередное путешествие таит в себе не только новые опасности, но и новые земли. Герои держат путь далеко от дома и как всегда с благородной целью — помочь людям. Кому, зачем и как? Не по-богатырски это — в раздумья пускаться, когда время поджимает и нужно действовать! Правда, помощь иной раз оказывается хуже татарской орды, но богатыри не отчаиваются, тем более что у них много верных помощников. Ради спасения своих друзей, героям придется подчас идти на очень решительные шаги, жертвовать собой и не думать, что ждет их впереди. Но, как известно, удача любит смелых и отважных.
Семпл: http://www.sendspace.com/file/you1a5
Качество: DVD5
Формат: DVD-video
Видео: MPEG Video; 6645 Кбит/сек; 720х576 (16:9); 25,000 кадров/сек; PAL
Аудио: AC-3; 448 Кбит/сек; 6 каналов; 48,0 КГц; русский
Аудио 2: AC-3; 192 Кбит/сек; 2 каналов; 48,0 КГц; русский
Субтитры: Отсутствуют
DVDInfo
Title: На дальных берегах (DVD5) [rutracker.org]Size: 3.70 Gb ( 3 881 110,00 KBytes ) - DVD-5Enabled regions: 1, 2, 3, 4, 5, 6, 7, 8
VTS_01 : Play Length: 00:00:25 Video: PAL 4:3 (720x576) VBR Audio: Russian (Dolby AC3, 6 ch)
VTS_02 : Play Length: 01:08:22 Video: PAL 16:9 (720x576) VBR, Auto Pan&Scan, Auto Letterboxed Audio: Russian, AC3, 3/2 (L,C,R,SL,SR)+LFE ch, 448 kbps, Delay 0 mSec Russian, AC3, 2/0 (L,R) ch, 192 kbps, Delay 0 mSec
* Menus Information *
VIDEO_TS MenuVideo: PAL 4:3 (720x576) VBREnglish Language Unit : Title Menu
VTS_01 MenuVideo: PAL 4:3 (720x576) VBRAudio: Not specified (Dolby AC3, 2 ch)English Language Unit : Root Menu Chapter (PTT) Menu
VTS_02 MenuVideo: PAL 4:3 (720x576) VBREnglish Language Unit : Root Menu Audio Menu Chapter (PTT) Menu
Скриншоты менюСкриншотыMI
Общее
Полное имя : E:\закачки\Готовые\На дальных берегах (DVD5) [rutracker.org]\VIDEO_TS\VTS_02_3.VOB
Формат : MPEG-PS
Размер файла : 1024 Мбайт
Продолжительность : 19 м.
Режим общего битрейта : Переменный
Общий поток : 7433 Кбит/сек
Видео
Идентификатор : 224 (0xE0)
Формат : MPEG Video
Версия формата : Version 2
Профиль формата : Main@Main
Параметр BVOP формата : Да
Параметр матрицы формата : Выборочная
Параметр GOP формата : M=3, N=12
Продолжительность : 19 м.
Вид битрейта : Переменный
Битрейт : 6645 Кбит/сек
Максимальный битрейт : 8500 Кбит/сек
Ширина : 720 пикселей
Высота : 576 пикселей
Соотношение сторон : 16:9
Частота кадров : 25,000 кадров/сек
Стандарт вещания : PAL
Цветовое пространство : YUV
Субдискретизация насыщенности : 4:2:0
Битовая глубина : 8 бит
Тип развёртки : Прогрессивная
Метод сжатия : С потерями
Бит/(Пиксели*Кадры) : 0.641
Временной код первого кадра : 00:40:18:07
Оригинал временного кода : Group of pictures header
Размер потока : 915 Мбайт (89%)
Аудио #1
Идентификатор : 189 (0xBD)-128 (0x80)
Формат : AC-3
Формат/Информация : Audio Coding 3
Расширение режима : CM (complete main)
Параметр Endianness формата : Big
Режим смешивания : DVD-Video
Продолжительность : 19 м.
Вид битрейта : Постоянный
Битрейт : 448 Кбит/сек
Каналы : 6 каналов
Расположение каналов : Front: L C R, Side: L R, LFE
Частота : 48,0 КГц
Битовая глубина : 16 бит
Метод сжатия : С потерями
Задержка видео : -408 мс.
Размер потока : 61,7 Мбайт (6%)
Аудио #2
Идентификатор : 189 (0xBD)-129 (0x81)
Формат : AC-3
Формат/Информация : Audio Coding 3
Расширение режима : CM (complete main)
Параметр Endianness формата : Big
Режим смешивания : DVD-Video
Продолжительность : 19 м.
Вид битрейта : Постоянный
Битрейт : 192 Кбит/сек
Каналы : 2 канала
Расположение каналов : Front: L R
Частота : 48,0 КГц
Битовая глубина : 16 бит
Метод сжатия : С потерями
Задержка видео : -312 мс.
Размер потока : 26,4 Мбайт (3%)
Меню

_________________
Показать сообщения:    

Текущее время: Сегодня 16:15

Часовой пояс: GMT



Вы не можете начинать темы
Вы не можете отвечать на сообщения
Вы не можете редактировать свои сообщения
Вы не можете удалять свои сообщения
Вы не можете голосовать в опросах
Вы не можете прикреплять файлы к сообщениям
Вы не можете скачивать файлы