Ивановский Торрент трекер
Яндекс.Погода
 

[Цитировать]
HUNTER

-Три богатыря: КВАДРОЛОГИЯ (Алеша Попович и Тугарин Змей / Добрыня Никитич и Змей Горыныч / Илья Муромец и Соловей Разбойник / Три богатыря и Шамаханская царица) (2004-2010) [BDRemux 1080p]-Алеша Попович и Тугарин Змей - -Страна: Россия
Жанр: полнометражный мультфильм
Продолжительность: 01:18:46
Год выпуска: 2004
Русские субтитры: нет-Режиссёр: Константин Бронзит-Роли озвучивали: Олег Куликович, Лия Медведева, Дмитрий Высоцкий, Анатолий Петров, Наталья Данилова, Сергей Маковецкий, Иван Краско, Татьяна Иванова, Михаил Черняк, Константин Бронзит, Елена Шульман-Описание: В древнем русском городе Ростове родился в поповской семье сын. Назвали его родители Алешей. А когда он вырос и стал богатырем, то совершил такие подвиги, что стал героем русских былин Алешей Поповичем. Только подвиги его начались с конфуза… Подступила к Ростову тугарская вражеская орда во главе с Тугарином Змеем и потребовала, чтобы жители города выплатили дань. Поповский сын предложил план действий. Народ этот план одобрил и собрал гору золота. Алеша же умудрился собственный план "благополучно" провалить, да с каким треском! И золото упустил, и полгорода разрушил. После чего поклялся — Тугарина Змея изловить и золото вернуть. Отправился Алеша Попович в путь вместе с дедом Тихоном, который мальчика вырастил и воспитал, а чуть позже компанию им составили говорящий конь Юлий, купленный у цыган, почти 16-летняя красавица Любава, ее бабка и их ослик Моисей…-Качество: BDRemux
Формат: MKV
Видео кодек: H.264
Аудио кодек: DTS
Видео:MPEG-4 AVC / 1920x1080 (1.78:1) / 23,976 fps / 9,5 Mbps
Аудио:48 kHz, DTS 3/2 (L,C,R,l,r) + LFE ch, ~1536.00 kbps avg-

Рейтинги

-

MediaInfo

GeneralUnique ID : 171828943425992232184302512733119899747 (0x81450CFDAACBCAD9AC989E033684E863)Complete name : C:\Documents and Settings\Admin\Рабочий стол\Bogatyri\Alesha.Popovich.i.Tugarin.Zmey.BDRemux.mkvFormat : MatroskaFile size : 6.23 GiBDuration : 1h 18mnOverall bit rate : 11.3 MbpsEncoded date : UTC 2011-03-18 22:19:05Writing application : mkvmerge v3.4.0 ('Rapunzel') сборка от May 15 2010 09:38:20Writing library : libebml v0.8.0 + libmatroska v0.9.0
VideoID : 1Format : AVCFormat/Info : Advanced Video CodecFormat profile : High@L4.1Format settings, CABAC : YesFormat settings, ReFrames : 4 framesCodec ID : V_MPEG4/ISO/AVCDuration : 1h 18mnBit rate mode : ConstantBit rate : 9 576 KbpsNominal bit rate : 25.0 MbpsWidth : 1 920 pixelsHeight : 1 080 pixelsDisplay aspect ratio : 16:9Frame rate : 23.976 fpsStandard : NTSCColor space : YUVChroma subsampling : 4:2:0Bit depth : 8 bitsScan type : ProgressiveBits/(Pixel*Frame) : 0.193Stream size : 5.27 GiB (85%)Color primaries : BT.709-5, BT.1361, IEC 61966-2-4, SMPTE RP177Transfer characteristics : BT.709-5, BT.1361Matrix coefficients : BT.709-5, BT.1361, IEC 61966-2-4 709, SMPTE RP177
AudioID : 2Format : DTSFormat/Info : Digital Theater SystemsCodec ID : A_DTSDuration : 1h 18mnBit rate mode : ConstantBit rate : 1 510 KbpsChannel(s) : 6 channelsChannel positions : Front: L C R, Side: L R, LFESampling rate : 48.0 KHzBit depth : 16 bitsCompression mode : LossyStream size : 851 MiB (13%)
-

Скриншоты

-Добрыня Никитич и Змей Горыныч
- -Страна: Россия
Жанр: полнометражный мультфильм
Продолжительность: 01:08:08
Год выпуска: 2006
Русские субтитры: нет-Режиссёр: Илья Максимов-Роли озвучивали: Сергей Маковецкий, Валерий Соловьев, Юрий Тарасов, Андрей Толубеев, Екатерина Гороховская, Наталья Данилова-Описание: Не перевелись еще богатыри на земле русской! И один из них - доблестный воин Добрыня Никитич, состоящий на службе у Князя Киевского. И, казалось бы, кому, как не Добрыне Никитичу, должен поручить Князь непростую задачу - спасти Забаву из когтистых лап похитившего ее Змея Горыныча? Но не отпускает Князь Добрыню на поиски племянницы. Нелегко, ох, нелегко придется Добрыне и его юному ученику Елисею. Тем более, что не знает Добрыня, и даже не догадывается, что Князь сам поставлен в безвыходное положение, и что он вовсе не заинтересован в возвращении племянницы. Тяжкое испытание предстоит Добрыне - познать горечь предательства. Но не суждено будет сбыться злодейским планам - и даже коварная Баба Яга окажется бессильна перед прямым и честным Добрыней и другом его Елисеем!-Качество: BDRemux
Формат: MKV
Видео кодек: H.264
Аудио кодек: DTS
Видео: MPEG-4 AVC / 1920x1080 (1.78:1) / 23,976 fps / 11,1 Mbps
Аудио: 48 kHz, DTS 3/2 (L,C,R,l,r) + LFE ch, ~1536.00 kbps avg-

Рейтинги

-

MediaInfo

GeneralUnique ID : 199563554771288464198248653826111655123 (0x96228AE774BE149D8073270DB2C54CD3)Complete name : C:\Documents and Settings\Admin\Рабочий стол\Bogatyri\Dobrynya.Nikitich.i.Zmey.Gorynych.BDRemux.mkvFormat : MatroskaFile size : 6.11 GiBDuration : 1h 8mnOverall bit rate : 12.8 MbpsEncoded date : UTC 2011-03-18 23:16:58Writing application : mkvmerge v3.4.0 ('Rapunzel') сборка от May 15 2010 09:38:20Writing library : libebml v0.8.0 + libmatroska v0.9.0
VideoID : 1Format : AVCFormat/Info : Advanced Video CodecFormat profile : High@L4.1Format settings, CABAC : YesFormat settings, ReFrames : 4 framesCodec ID : V_MPEG4/ISO/AVCDuration : 1h 8mnBit rate mode : ConstantBit rate : 11.1 MbpsNominal bit rate : 25.0 MbpsWidth : 1 920 pixelsHeight : 1 080 pixelsDisplay aspect ratio : 16:9Frame rate : 23.976 fpsStandard : NTSCColor space : YUVChroma subsampling : 4:2:0Bit depth : 8 bitsScan type : ProgressiveBits/(Pixel*Frame) : 0.223Stream size : 5.27 GiB (86%)Color primaries : BT.709-5, BT.1361, IEC 61966-2-4, SMPTE RP177Transfer characteristics : BT.709-5, BT.1361Matrix coefficients : BT.709-5, BT.1361, IEC 61966-2-4 709, SMPTE RP177
AudioID : 2Format : DTSFormat/Info : Digital Theater SystemsCodec ID : A_DTSDuration : 1h 8mnBit rate mode : ConstantBit rate : 1 510 KbpsChannel(s) : 6 channelsChannel positions : Front: L C R, Side: L R, LFESampling rate : 48.0 KHzBit depth : 16 bitsCompression mode : LossyStream size : 736 MiB (12%)
-

Скриншоты

-Илья Муромец и Соловей Разбойник - -Страна: Россия
Жанр: полнометражный мультфильм
Продолжительность: 01:19:31
Год выпуска: 2007
Русские субтитры: нет-Режиссёр: Владимир Торопчин-Роли озвучивали: Олег Табаков, Анатолий Петров, Сергей Маковецкий, Валерий Соловьев, Екатерина Гороховская, Андрей Толубеев-Описание: Славится земля русская богатырями богатырскими да разбойниками разбойничьими… А сверху всего князь княжеский сидит, за всем следит и порядок наводит, если нужно. Да только не всегда выходит у князя так, как нужно — правильно. Вот и сейчас — с богатырём поругался, да от Соловья Разбойника урон потерпел немалый: увёл бандит окаянный казну государственную прямо из-под носа! Что делать князю? А ничего особенного — на то он и князь, чтоб из любой ситуации выход найти! Вот и отправились князь с Ильёй на поиски похищенного, а за ними вслед увязалась корреспондентка летописи «Новая береста». А дорога непростая выдалась, до самого Царьграда довела, где встретил их Император Византийский, да только незадача вышла — повздорили наши герои с императором этим, и заключил он против Князя Киевского и Земель русских союз с Соловьем Разбойником…-Качество: BDRemux
Формат: MKV
Видео кодек: H.264
Аудио кодек: DTS
Видео: MPEG-4 AVC / 1920x1080 (1.78:1) / 24 fps / 11,8 Mbps
Аудио: 48 kHz, DTS 3/2 (L,C,R,l,r) + LFE ch, ~1536.00 kbps avg-

Рейтинги

-

MediaInfo

GeneralUnique ID : 217301075233239972231544000109046192201 (0xA37AAA2E9FB6FDC98C9AF0D81334D849)Complete name : I:\Bogatyri\Ilya.Muromets.i.Solovey.Razboynik.BDRemux.mkvFormat : MatroskaFile size : 7.04 GiBDuration : 1h 19mnOverall bit rate : 12.7 MbpsEncoded date : UTC 2011-03-19 21:51:04Writing application : mkvmerge v3.4.0 ('Rapunzel') сборка от May 15 2010 09:38:20Writing library : libebml v0.8.0 + libmatroska v0.9.0
VideoID : 1Format : AVCFormat/Info : Advanced Video CodecFormat profile : High@L4.1Format settings, CABAC : YesFormat settings, ReFrames : 4 framesCodec ID : V_MPEG4/ISO/AVCDuration : 1h 19mnBit rate mode : ConstantBit rate : 11.3 MbpsNominal bit rate : 28.0 MbpsWidth : 1 920 pixelsHeight : 1 080 pixelsDisplay aspect ratio : 16:9Frame rate : 23.976 fpsStandard : NTSCColor space : YUVChroma subsampling : 4:2:0Bit depth : 8 bitsScan type : ProgressiveBits/(Pixel*Frame) : 0.227Stream size : 6.26 GiB (89%)Color primaries : BT.709-5, BT.1361, IEC 61966-2-4, SMPTE RP177Transfer characteristics : BT.709-5, BT.1361Matrix coefficients : BT.709-5, BT.1361, IEC 61966-2-4 709, SMPTE RP177
AudioID : 2Format : DTSFormat/Info : Digital Theater SystemsCodec ID : A_DTSDuration : 1h 19mnBit rate mode : ConstantBit rate : 1 152 KbpsChannel(s) : 6 channelsChannel positions : Front: L C R, Side: L R, LFESampling rate : 48.0 KHzBit depth : 16 bitsCompression mode : LossyStream size : 655 MiB (9%)
-

Скриншоты

-Три богатыря и Шамаханская царица
- -Страна: Россия
Жанр: полнометражный мультфильм
Продолжительность: 01:16:32
Год выпуска: 2010
Русские субтитры: нет-Режиссёр: Сергей Глезин-Роли озвучивали: Дмитрий Быковский, Валерий Соловьев, Олег Куликович, Сергей Маковецкий, Анна Геллер, Дмитрий Высоцкий, Константин Бронзит, Мария Цветкова, Елена Шульман, Лия Медведева, Игорь Шибанов, Анатолий Петров-Описание: Легендарная Шамаханская царица, которая сводила с ума многих царей и простых смертных, положила свой глаз и на Киевского князя. Тот заболел любовью странной по ней. Но чтобы доставить в целости и сохранности эту чудо-богиню в Киев-Град, срочно из отпуска вызывают всех троих, уже знакомых нам, богатырей: Алёшу Поповича, Добрыню Никитича и Илью Муромца. Теперь троица должна решить, как быть дальше? Вроде бы и слухи о царице ходят нелестные, и князя жаль.-Качество: BDRemux
Формат: MKV
Видео кодек: H.264
Аудио кодек: DTS
Видео: MPEG-4 AVC / 1920x1080 (1.78:1) / 24 fps / 11,8 Mbps
Аудио: 48 kHz, DTS 3/2 (L,C,R,l,r) + LFE ch, ~1536.00 kbps avg-

Рейтинги

-

MediaInfo

GeneralUnique ID : 251389456663890040113727605773824164582 (0xBD1FD9258CE15E4EACF969D2E37402E6)Complete name : I:\Bogatyri\Tri.Bogatyrya.i.Shamakhanskaya.Tsaritsa.BDRemux.mkvFormat : MatroskaFile size : 7.24 GiBDuration : 1h 16mnOverall bit rate : 13.5 MbpsEncoded date : UTC 2011-03-20 20:49:21Writing application : mkvmerge v3.4.0 ('Rapunzel') сборка от May 15 2010 09:38:20Writing library : libebml v0.8.0 + libmatroska v0.9.0
VideoID : 1Format : AVCFormat/Info : Advanced Video CodecFormat profile : High@L4.1Format settings, CABAC : YesFormat settings, ReFrames : 3 framesCodec ID : V_MPEG4/ISO/AVCDuration : 1h 16mnBit rate mode : ConstantBit rate : 11.8 MbpsNominal bit rate : 25.0 MbpsWidth : 1 920 pixelsHeight : 1 080 pixelsDisplay aspect ratio : 16:9Frame rate : 24.000 fpsStandard : NTSCColor space : YUVChroma subsampling : 4:2:0Bit depth : 8 bitsScan type : ProgressiveBits/(Pixel*Frame) : 0.236Stream size : 6.29 GiB (87%)Color primaries : BT.709-5, BT.1361, IEC 61966-2-4, SMPTE RP177Transfer characteristics : BT.709-5, BT.1361Matrix coefficients : BT.709-5, BT.1361, IEC 61966-2-4 709, SMPTE RP177
AudioID : 2Format : DTSFormat/Info : Digital Theater SystemsCodec ID : A_DTSDuration : 1h 16mnBit rate mode : ConstantBit rate : 1 510 KbpsChannel(s) : 6 channelsChannel positions : Front: L C R, Side: L R, LFESampling rate : 48.0 KHzBit depth : 24 bitsCompression mode : LossyStream size : 826 MiB (11%)
-

Скриншоты

-
Показать сообщения:    

Текущее время: 22-Сен 09:04

Часовой пояс: UTC - 1


Вы не можете начинать темы
Вы не можете отвечать на сообщения
Вы не можете редактировать свои сообщения
Вы не можете удалять свои сообщения
Вы не можете голосовать в опросах
Вы не можете прикреплять файлы к сообщениям
Вы не можете скачивать файлы

!ВНИМАНИЕ!
Сайт не предоставляет электронные версии произведений, а занимается лишь коллекционированием и каталогизацией ссылок, присылаемых и публикуемых на форуме нашими читателями. Если вы являетесь правообладателем какого-либо представленного материала и не желаете, чтобы ссылка на него находилась в нашем каталоге, свяжитесь с нами, и мы незамедлительно удалим ее. Файлы для обмена на трекере предоставлены пользователями сайта, и администрация не несет ответственности за их содержание. Просьба не заливать файлы, защищенные авторскими правами, а также файлы нелегального содержания!