Ивановский Торрент трекер
Яндекс.Погода
 

[Цитировать]
HUNTER

Трилогия: Элвин и бурундуки 1,2,3 / Trilogy: Alvin and the Chipmunks 1, 2, 3 Элвин и Бурундуки / Alvin and the Chipmunks Год выпуска: 2007
Страна: США
Жанр: Семейный, музыка, фентези, приключения
Продолжительность: 01:31:13
Перевод: Профессиональный (полное дублирование) |Лицензия|
Субтитры: русские + английские (полные, внешние, srt)
Оригинальная дорожка: Английский
Режиссёр: Тим Хилл / Tim Hill
В ролях: Джейсон Ли, Дэвид Кросс, Кэмерон Ричардсон, Джейн Линч, Джастин Лонг, Мэттью Грей Габлер, Джесси МакКартни, Эллисон КарманГруппа желает всем приятного просмотра!Описание: Всемирно известное музыкальное шоу Элвина и бурундуков пожаловало, наконец, и в Россию. Бурундуки и Дейв Севиль уже завоевали несколько премий "Гремми". У них есть свое телешоу и популярнейший анимационный сериал. Теперь и у российского зрителя есть возможность оценить трио писклявых мультяшных бурундучков.
Автор: Dead Man666
Размер: 1/6 DVD
Исходник: BDRip 1080p
Качество: HDRip
Формат: AVI
Видео: 688x368 (1.87:1), 23.976 fps, XviD build 50 ~1002 kbps avg, 0.17 bit/pixel
Аудио: 48 kHz, MPEG Layer 3, 2 ch, ~128.00 kbps avg | Rus
Аудио#2: 48 kHz, AC3 Dolby Digital, 3/2 (L,C,R,l,r) + LFE ch, ~448 kbps | Eng (Отдельно)

Сравнение

Автор этой раздачи http://rutracker.org/forum/viewtopic.php?t=2999769 отдал свой рип на поглощение в пользу пака. За что ему огромное спасибо!

MI

Общее
Полное имя : D:\Торренты\Alvin and the Chipmunks_R.G.Torrents.Ru_Drek\Alvin and the Chipmunks_2007_R.G.Torrents.Ru_Drek\Alvin and the Chipmunks_2007_R.G.Torrents.Ru_Drek.avi
Формат : AVI
Формат/Информация : Audio Video Interleave
Размер файла : 744 Мбайт
Продолжительность : 1 ч. 31 м.
Общий поток : 1140 Кбит/сек
Программа кодирования : VirtualDubMod 1.5.10.2 (build 2540/release)
Библиотека кодирования : VirtualDubMod build 2540/release
Видео
Идентификатор : 0
Формат : MPEG-4 Visual
Профиль формата : Advanced Simple@L5
Параметр BVOP формата : 2
Параметр QPel формата : Нет
Параметр GMC формата : Без точки перехода
Параметр матрицы формата : Выборочная
Идентификатор кодека : XVID
Идентификатор кодека/Подсказка : XviD
Продолжительность : 1 ч. 31 м.
Битрейт : 1003 Кбит/сек
Ширина : 688 пикселей
Высота : 368 пикселей
Соотношение сторон : 1,870
Частота кадров : 23,976 кадра/сек
Цветовое пространство : YUV
Субдискретизация насыщенности : 4:2:0
Битовая глубина : 8 бит
Тип развёртки : Прогрессивная
Метод сжатия : С потерями
Бит/(Пиксели*Кадры) : 0.165
Размер потока : 654 Мбайт (88%)
Библиотека кодирования : XviD 64
Аудио
Идентификатор : 1
Формат : MPEG Audio
Версия формата : Version 1
Профиль формата : Layer 3
Идентификатор кодека : 55
Идентификатор кодека/Подсказка : MP3
Продолжительность : 1 ч. 31 м.
Вид битрейта : Постоянный
Битрейт : 128 Кбит/сек
Каналы : 2 канала
Частота : 48,0 КГц
Метод сжатия : С потерями
Размер потока : 83,5 Мбайт (11%)
Выравнивание : Соединение по промежуткам
Продолжительность промежутка : 42 мс. (1,00 видеокадр)
Время предзагрузки промежутка : 504 мс.
Библиотека кодирования : LAME3.98r
Настройки программы : -m s -V 4 -q 2 -lowpass 17 -b 128

Скриншот c названием фильма

Скриншоты


Элвин и бурундуки 2 / Alvin and the Chipmunks: The Squeakquel

Год выпуска: 2009
Страна: США
Жанр: Семейный, музыка, фентези, приключения
Продолжительность: 01:28:34
Перевод: Профессиональный (полное дублирование) |Лицензия|
Субтитры: русские + английские (полные, внешние, srt)
Оригинальная дорожка: Английский
Режиссёр: Бетти Томас / Betty Thomas
В ролях: Захари Левай, Дэвид Кросс, Джейсон Ли, Джастин Лонг, Мэттью Грей Габлер, Джесси МакКартни, Эми Полер, Анна Фэрис, Кристина Эпплгейт, Уэнди МэликГруппа желает всем приятного просмотра!Описание: Три веселых бурундука Элвин, Саймон и Теодор поступают в школу, где их ждут новые приключения. Им придется столкнуться с множеством преград со стороны одноклассников. Но самое главное — их ожидает соперничество с новой музыкальной командой, состоящей из девочек-бурундуков, которое впоследствии перерастет в большую дружбу.
Размер: 1/6 DVD
Исходник: BDRip 1080p
Качество: HDRip
Формат: AVI
Видео: 688x368 (1.87:1), 23.976 fps, XviD MPEG-4 ~1040 kbps avg, 0.17 bit/pixel
Аудио: 48 kHz, MPEG Layer 3, 2 ch, ~128.00 kbps avg | Rus
Аудио#2: 48 kHz, AC3 Dolby Digital, 3/2 (L,C,R,l,r) + LFE ch, ~448 kbps | Eng (Отдельно)

MI

Общее
Полное имя : D:\Торренты\Alvin and the Chipmunks_R.G.Torrents.Ru_Drek\Alvin and the Chipmunks - The Squeakquel_2009_R.G.Torrents.Ru_Drek\Alvin and the Chipmunks - The Squeakquel_2009_R.G.Torrents.Ru_Drek.avi
Формат : AVI
Формат/Информация : Audio Video Interleave
Размер файла : 746 Мбайт
Продолжительность : 1 ч. 28 м.
Общий поток : 1178 Кбит/сек
Программа кодирования : VirtualDubModRus 1.5.10.2 (build 2542/release)
Библиотека кодирования : VirtualDubMod build 2542/release
Видео
Идентификатор : 0
Формат : MPEG-4 Visual
Профиль формата : Advanced Simple@L5
Параметр BVOP формата : 2
Параметр QPel формата : Нет
Параметр GMC формата : Без точки перехода
Параметр матрицы формата : Выборочная
Режим смешивания : Сжатый битовый поток
Идентификатор кодека : XVID
Идентификатор кодека/Подсказка : XviD
Продолжительность : 1 ч. 28 м.
Битрейт : 1040 Кбит/сек
Ширина : 688 пикселей
Высота : 368 пикселей
Соотношение сторон : 1,870
Частота кадров : 23,976 кадра/сек
Цветовое пространство : YUV
Субдискретизация насыщенности : 4:2:0
Битовая глубина : 8 бит
Тип развёртки : Прогрессивная
Метод сжатия : С потерями
Бит/(Пиксели*Кадры) : 0.171
Размер потока : 659 Мбайт (88%)
Библиотека кодирования : XviD 64
Аудио
Идентификатор : 1
Формат : MPEG Audio
Версия формата : Version 1
Профиль формата : Layer 3
Режим : Joint stereo
Идентификатор кодека : 55
Идентификатор кодека/Подсказка : MP3
Продолжительность : 1 ч. 28 м.
Вид битрейта : Постоянный
Битрейт : 128 Кбит/сек
Каналы : 2 канала
Частота : 48,0 КГц
Метод сжатия : С потерями
Размер потока : 81,1 Мбайт (11%)
Выравнивание : Соединение по промежуткам
Продолжительность промежутка : 42 мс. (1,00 видеокадр)
Время предзагрузки промежутка : 504 мс.
Библиотека кодирования : LAME3.99
Настройки программы : -m j -V 4 -q 2 -lowpass 17 -b 128

Скриншот c названием фильма

Скриншоты

Элвин и бурундуки 3 / Alvin and the Chipmunks: Chipwrecked

Год выпуска: 2011
Страна: США
Жанр: мультфильм, фэнтези, комедия, семейный, музыка
Продолжительность: 01:27:09
Перевод: Профессиональный (дублированный) |Лицензия|
Субтитры: русские + английские (полные, внешние, srt)
Оригинальная дорожка: Английский
Режиссер: Майк Митчел / Mike Mitchell
В ролях: Джейсон Ли, Дэвид Кросс, Дженни Слейт, Джастин Лонг, Мэттью Грей, Гублер Джесси, МакКартни, Эми Полер, Анна Фэрис, Кристина Эпплгейт, Алан ТьюдикГруппа желает всем приятного просмотра!Описание: Приключения троицы непоседливых братьев-бурундуков продолжаются! Элвин, Саймон и Теодор, а также их подруги бурундушки, просто не могут оставаться в стороне от различного рода неприятностей, сулящих им новые увлекательные приключения. Что на этот раз уготовила судьба нашим героям, и как они выпутаются из очередной передряги — вот в чём вопрос.
Размер: 1/6 DVD
Исходник: BDRip 1080p
Качество видео: HDRip
Формат видео: AVI
Видео: 688x368 (1.87:1), 23.976 fps, XviD MPEG-4 ~1064 kbps avg, 0.17 bit/pixel
Аудио: 48 kHz, MPEG Layer 3, 2 ch, ~128.00 kbps avg

Аудио#2: 48 kHz, AC3 Dolby Digital, 3/2 (L,C,R,l,r) + LFE ch, ~448 kbps | Eng (Отдельно)

Сравнение

На поглощение http://rutracker.org/forum/viewtopic.php?t=3978992

MediaInfo

Общее
Полное имя : C:\Documents and Settings\Администратор\Рабочий стол\Alvin and the Chipmunks Chipwrecked_R.G.Torrents.Ru_Drek.avi
Формат : AVI
Формат/Информация : Audio Video Interleave
Размер файла : 749 Мбайт
Продолжительность : 1 ч. 27 м.
Общий поток : 1202 Кбит/сек
Программа кодирования : VirtualDubModRus 1.5.10.2 (build 2542/release)
Библиотека кодирования : VirtualDubMod build 2542/release
Видео
Идентификатор : 0
Формат : MPEG-4 Visual
Профиль формата : Advanced Simple@L5
Параметр BVOP формата : 2
Параметр QPel формата : Нет
Параметр GMC формата : Без точки перехода
Параметр матрицы формата : Выборочная
Режим смешивания : Сжатый битовый поток
Идентификатор кодека : XVID
Идентификатор кодека/Подсказка : XviD
Продолжительность : 1 ч. 27 м.
Битрейт : 1065 Кбит/сек
Ширина : 688 пикселей
Высота : 368 пикселей
Соотношение сторон : 1,870
Частота кадров : 23,976 кадра/сек
Цветовое пространство : YUV
Субдискретизация насыщенности : 4:2:0
Битовая глубина : 8 бит
Тип развёртки : Прогрессивная
Метод сжатия : С потерями
Бит/(Пиксели*Кадры) : 0.175
Размер потока : 664 Мбайт (89%)
Библиотека кодирования : XviD 64
Аудио
Идентификатор : 1
Формат : MPEG Audio
Версия формата : Version 1
Профиль формата : Layer 3
Режим : Joint stereo
Расширение режима : MS Stereo
Идентификатор кодека : 55
Идентификатор кодека/Подсказка : MP3
Продолжительность : 1 ч. 27 м.
Вид битрейта : Постоянный
Битрейт : 128 Кбит/сек
Каналы : 2 канала
Частота : 48,0 КГц
Метод сжатия : С потерями
Размер потока : 79,8 Мбайт (11%)
Выравнивание : Соединение по промежуткам
Продолжительность промежутка : 42 мс. (1,00 видеокадр)
Время предзагрузки промежутка : 504 мс.
Библиотека кодирования : LAME3.99
Настройки программы : -m j -V 4 -q 2 -lowpass 17 -b 128

Скриншот c названием фильма

Скриншоты

Показать сообщения:    

Текущее время: 22-Сен 03:24

Часовой пояс: UTC - 1


Вы не можете начинать темы
Вы не можете отвечать на сообщения
Вы не можете редактировать свои сообщения
Вы не можете удалять свои сообщения
Вы не можете голосовать в опросах
Вы не можете прикреплять файлы к сообщениям
Вы не можете скачивать файлы

!ВНИМАНИЕ!
Сайт не предоставляет электронные версии произведений, а занимается лишь коллекционированием и каталогизацией ссылок, присылаемых и публикуемых на форуме нашими читателями. Если вы являетесь правообладателем какого-либо представленного материала и не желаете, чтобы ссылка на него находилась в нашем каталоге, свяжитесь с нами, и мы незамедлительно удалим ее. Файлы для обмена на трекере предоставлены пользователями сайта, и администрация не несет ответственности за их содержание. Просьба не заливать файлы, защищенные авторскими правами, а также файлы нелегального содержания!