Тридцать секунд над Токио / Thirty Seconds Over Tokyo (Мервин ЛеРой / Mervyn LeRoy) [1944, США, драма, военный, история, WEB-DL 720p] MVO (ТК "Домашний") + Sub Eng + Original Eng :: Ивановский Торрент трекер
Важное объявление!
У Нас Все раздачи мультитрекерные, при нуле пиров в релизах, можете смело вставать на закачку!
Статистика раздачи
Размер:     |    Зарегистрирован:     |    Скачан:     |   
Нет
 
     
 
 
Автор Сообщение

HUNTER

Стаж:
4 года 11 месяцев
Сообщений:
66054

Репутация: 101

[+] [-]
Вне форума [Профиль] [ЛС]

Тридцать секунд над Токио / Thirty Seconds Over Tokyo
Страна: США
Жанр: драма, военный, история
Год выпуска: 1944
Продолжительность: 02:18:17
Перевод: Профессиональный (многоголосый закадровый) - ТК "Домашний" (производство кинокомпании Селена-Интернешнл, по заказу телеканала "Домашний")
Cубтитры: английские
Оригинальная аудиодорожка: английский
Режиссер: Мервин ЛеРой / Mervyn LeRoy
В ролях: Ван Джонсон, Роберт Уокер, Тим Мёрдок, Скотт МакКэй, Херберт Ганн, Дон ДеФор, Роберт Митчум, Джон Р. Рейли, Стефен МакНалли, Спенсер Трэйси
Описание: По реальным событиям, вошедшим в историю как "Рейд Дулиттла". Пораженная событиями в Перл Харборе и серией неудач в Европе, Америка нуждается в крупной победе. Бывший пилот-ас полковник Джимми Дулиттл разрабатывает план рискованной операции - авиарейда в Японию. Для этого ему необходимо набрать и обучить отряд пилотов, а самое главное - совершить почти невозможное - запустить с авианосца 16 полностью вооруженных бомбардировщиков.
Доп. информация:


За дорожку с переводом спасибо olegsa
Сэмпл: http://sendfile.su/1043720
Тип релиза: WEB-DL 720p
Контейнер: MKV
Видео: AVC, 964x720, L3.1, 23.976fps, 4076kbps
Аудио 1: Russian: AC3, 48000Hz, 1ch, 192kbps
Аудио 2: English: AC3, 48000Hz, 1ch, 192kbps - DVD
Аудио 3: English: AAC, 48000Hz, 2ch, 122kbps - WEB-DL
Формат субтитров: softsub (SRT)

MediaInfo

Общее
Уникальный идентификатор : 234534475476197025291197934067522469204 (0xB071B26A1333B3D4991BBBC360EBFD54)
Полное имя : T:\Thirty Seconds Over Tokyo (WEB-DL 720p).mkv
Формат : Matroska
Версия формата : Version 4 / Version 2
Размер файла : 4,43 Гбайт
Продолжительность : 2 ч. 18 м.
Общий поток : 4582 Кбит/сек
Дата кодирования : UTC 2014-11-03 06:05:28
Программа кодирования : mkvmerge v6.9.1 ('Blue Panther') 64bit built on Apr 18 2014 18:23:38
Библиотека кодирования : libebml v1.3.0 + libmatroska v1.4.1
Видео
Идентификатор : 1
Формат : AVC
Формат/Информация : Advanced Video Codec
Профиль формата : Main@L3.1
Параметр CABAC формата : Нет
Параметр ReFrames формата : 2 кадра
Идентификатор кодека : V_MPEG4/ISO/AVC
Продолжительность : 2 ч. 18 м.
Ширина : 964 пикселя
Высота : 720 пикселей
Соотношение сторон : 4:3
Режим частоты кадров : Постоянный
Частота кадров : 23,976 кадра/сек
Цветовое пространство : YUV
Субдискретизация насыщенности : 4:2:0
Битовая глубина : 8 бит
Тип развёртки : Прогрессивная
Язык : English
Default : Да
Forced : Нет
Основные цвета : BT.709
Характеристики трансфера : BT.709
Коэффициенты матрицы : BT.709
Аудио #1
Идентификатор : 2
Формат : AC-3
Формат/Информация : Audio Coding 3
Расширение режима : CM (complete main)
Параметр Endianness формата : Big
Идентификатор кодека : A_AC3
Продолжительность : 2 ч. 18 м.
Вид битрейта : Постоянный
Битрейт : 192 Кбит/сек
Каналы : 1 канал
Расположение каналов : Front: C
Частота : 48,0 КГц
Битовая глубина : 16 бит
Метод сжатия : С потерями
Размер потока : 190 Мбайт (4%)
Заголовок : ТК "Домашний"
Язык : Russian
Default : Да
Forced : Нет
Аудио #2
Идентификатор : 3
Формат : AC-3
Формат/Информация : Audio Coding 3
Расширение режима : CM (complete main)
Параметр Endianness формата : Big
Идентификатор кодека : A_AC3
Продолжительность : 2 ч. 18 м.
Вид битрейта : Постоянный
Битрейт : 192 Кбит/сек
Каналы : 1 канал
Расположение каналов : Front: C
Частота : 48,0 КГц
Битовая глубина : 16 бит
Метод сжатия : С потерями
Размер потока : 190 Мбайт (4%)
Заголовок : DVD
Язык : English
Default : Нет
Forced : Нет
Аудио #3
Идентификатор : 4
Формат : AAC
Формат/Информация : Advanced Audio Codec
Профиль формата : LC
Идентификатор кодека : A_AAC
Продолжительность : 2 ч. 18 м.
Каналы : 2 канала
Расположение каналов : Front: L R
Частота : 48,0 КГц
Метод сжатия : С потерями
Заголовок : WEB-DL
Язык : English
Default : Нет
Forced : Нет
Текст
Идентификатор : 5
Формат : UTF-8
Идентификатор кодека : S_TEXT/UTF8
Идентификатор кодека/Информация : UTF-8 Plain Text
Язык : English
Default : Нет
Forced : Нет
Меню
00:00:00.000 : en:Chapter 1
00:08:08.000 : en:Chapter 2
00:15:44.000 : en:Chapter 3
00:24:31.000 : en:Chapter 4
00:32:38.000 : en:Chapter 5
00:42:42.000 : en:Chapter 6
00:50:46.000 : en:Chapter 7
00:59:51.000 : en:Chapter 8
01:07:56.000 : en:Chapter 9
01:16:26.000 : en:Chapter 10
01:24:39.000 : en:Chapter 11
01:33:32.000 : en:Chapter 12
01:42:21.000 : en:Chapter 13
01:51:02.000 : en:Chapter 14
01:59:59.000 : en:Chapter 15
02:09:30.000 : en:Chapter 16

Скриншоты


_________________
Показать сообщения:    

Текущее время: Сегодня 09:04

Часовой пояс: GMT



Вы не можете начинать темы
Вы не можете отвечать на сообщения
Вы не можете редактировать свои сообщения
Вы не можете удалять свои сообщения
Вы не можете голосовать в опросах
Вы не можете прикреплять файлы к сообщениям
Вы не можете скачивать файлы