Важное объявление!
У Нас Все раздачи мультитрекерные, при нуле пиров в релизах, можете смело вставать на закачку!
 
Автор Сообщение

HUNTER

Стаж:
4 года 10 месяцев
Сообщений:
65506

Репутация: 101

[+] [-]
Вне форума [Профиль] [ЛС]

Третий человек на горе / Third Man on the Mountain
Страна: США
Студия: Walt Disney Productions
Жанр: драма, приключения
Год выпуска: 1959
Продолжительность: 01:47:00
Перевод: Субтитры Антон Каптелов
Cубтитры: русские, английские
Оригинальная аудиодорожка: английский
Режиссер: Кен Эннакин / Ken Annakin
В ролях: Майкл Ренни, Джеймс МакАртур, Джанет Манро, Джеймс Дональд, Херберт Лом, Лоуренс Нэйсмит, Ли Пэттерсон, Уолтер Фицджералд, Нора Суинбёрн, Ферди Мэйн
Описание: Диснеевская экранизация романа Джеймса Рэмси Уллмана "Знамя в небесах".
Гора Цитадель, прозванная в народе горой-убийцей, остается одной из последних непокоренных вершин Швейцарских Альп. Последним, кто отважился на отчаянную попытку восхождения на нее был Джозеф Мэтт, но он погиб, так и не добравшись до вершины. Восемнадцатилетний сын Джозефа, Руди, мечтает продолжить дело отца и покорить вершину Цитадели.

Кинопоиск IMDb Sample
Тип релиза: WEB-DL 720p
Контейнер: MKV
Видео: MPEG4 AVC Video, H264, 1204x720, 23.976 fps, 3870 kbps
Аудио: English (AC3, 2 ch, 192 kbps, 16 bits, 48.0 KHz) - оригинал
Формат субтитров: softsub (SRT)

MediaInfo

General
Unique ID : 240414823512187167725410886240559931228 (0xB4DE35F4DEB7058EBC38EA5D7F3F9F5C)
Complete name : L:\Third Man On the Mountain 1959 WEB-DL 720p.mkv
Format : Matroska
Format version : Version 4 / Version 2
File size : 3.10 GiB
Duration : 1h 47mn
Overall bit rate : 4 145 Kbps
Encoded date : UTC 2015-05-24 22:18:51
Writing application : mkvmerge v6.1.0 ('Old Devil') built on Mar 2 2013 14:32:37
Writing library : libebml v1.3.0 + libmatroska v1.4.0
Video
ID : 1
Format : AVC
Format/Info : Advanced Video Codec
Format profile : High@L3.1
Format settings, CABAC : No
Format settings, ReFrames : 2 frames
Codec ID : V_MPEG4/ISO/AVC
Duration : 1h 47mn
Bit rate : 3 870 Kbps
Width : 1 204 pixels
Height : 720 pixels
Display aspect ratio : 1.672
Frame rate mode : Constant
Frame rate : 23.976 fps
Color space : YUV
Chroma subsampling : 4:2:0
Bit depth : 8 bits
Scan type : Progressive
Bits/(Pixel*Frame) : 0.186
Stream size : 2.89 GiB (93%)
Language : English
Default : Yes
Forced : No
Color primaries : BT.709
Transfer characteristics : BT.709
Matrix coefficients : BT.709
Audio
ID : 2
Format : AC-3
Format/Info : Audio Coding 3
Mode extension : CM (complete main)
Format settings, Endianness : Big
Codec ID : A_AC3
Duration : 1h 47mn
Bit rate mode : Constant
Bit rate : 192 Kbps
Channel count : 2 channels
Channel positions : Front: L R
Sampling rate : 48.0 KHz
Bit depth : 16 bits
Compression mode : Lossy
Stream size : 147 MiB (5%)
Language : English
Default : Yes
Forced : Yes
Text #1
ID : 3
Format : UTF-8
Codec ID : S_TEXT/UTF8
Codec ID/Info : UTF-8 Plain Text
Language : Russian
Default : Yes
Forced : Yes
Text #2
ID : 4
Format : UTF-8
Codec ID : S_TEXT/UTF8
Codec ID/Info : UTF-8 Plain Text
Language : English
Default : No
Forced : No

Скриншоты


_________________
Показать сообщения:    

Текущее время: Сегодня 20:33

Часовой пояс: GMT



Вы не можете начинать темы
Вы не можете отвечать на сообщения
Вы не можете редактировать свои сообщения
Вы не можете удалять свои сообщения
Вы не можете голосовать в опросах
Вы не можете прикреплять файлы к сообщениям
Вы не можете скачивать файлы